.
Авторизация | Регистрация
» » Страна приливов / Tideland (2005) BDRemux | P скачать через торрент бесплатно




    Страна приливов / Tideland (2005) BDRemux | P скачать через торрент бесплатно

    Опубликовал: Админ | Дата: 27-02-2015, 11:10 | Просмотров: 144


    Детально о кино
    Русское название: Страна приливов
    Русское название в мировом прокате: Tideland
    Создали в: 2005
    Категория жанра: фэнтези, триллер, драма
    Главный режиссер: Терри Гиллиам
    Актеры: Джоделл Ферланд, Джанет МакТир, Брендан Флетчер, Дженнифер Тилли, Джефф Бриджес, Дилан Тейлор, Венди Андерсон, Салли Крукс
    Сюжет фильма:
    Десятилетней девочке Джелизе-Роуз с родителями явно не повезло. Немолодой папаша наяривает в разбитной рок-группе, по вечерам отправляясь в продолжительные наркотические трипы, мама сидит на таблетках и героине. Но несмотря на это, дочь любит своих родных, ведь других у неё просто нет. В подружках — оторванные головы кукол. Нездоровый образ жизни сводит матушку в могилу, и Ной (отец) решает увести Джелизу-Роуз в дом своего детства, расположенный в бескрайних просторах пшеничных полей на окраине города. Побег от реальности приведёт их в мрачное царство американского захолустья, где самые смелые городские фантазии выглядят безобидными рождественскими сказками…

    Снималось в: Канада, Великобритания, Astral Media Inc.
    Время просмотра: 02:00:03
    Перевод текста: Профессиональный (многоголосый, закадровый) + Оригинальная дорожка
    Файл
    Тип видео: MKV
    Качество фильма: BDRemux
    Информация о видео: VC-1, 16.6 Mбит/с, 1920x1080, 23.976 Кадр/с
    Русский (AC3, 6 ch, 448 Кбит/с),английский (DTS, 6 ch, 1152 Кбит/с), (AC3, 2 ch, 192 Кбит/с)
    Размер скачиваемого торрента: 15.74 ГБ
    Media Info
    Общее
    Уникальный идентификатор : 218805450212302266618784195157591614700 (0xA49C65985929302E957C853D427C64EC)
    Полное имя : D:Кинозал. TVTideland.Blu-Ray.Remux.mkv
    Формат : Matroska
    Версия формата : Version 1
    Размер файла : 15,7 Гбайт
    Продолжительность : 2 ч. 0 м.
    Общий поток : 18,8 Мбит/сек
    Дата кодирования : UTC 2008-10-05 10:22:17
    Программа кодирования : mkvmerge v2.2.0 (;Turn It On Again;) built on Mar 4 2008 12:58:26
    Библиотека кодирования : libebml v0.7.7 + libmatroska v0.8.1
    Видео
    Идентификатор : 1
    Формат : VC-1
    Профиль формата : Advanced@L3
    Идентификатор кодека : V_MS/VFW/FOURCC/WVC1
    Идентификатор кодека/Подсказка : Microsoft
    Продолжительность : 2 ч. 0 м.
    Битрейт : 16,6 Мбит/сек
    Ширина : 1920 пикселей
    Высота : 1080 пикселей
    Соотношение сторон : 16:9
    Режим частоты кадров : Постоянный
    Частота кадров : 23,976 кадра/сек
    Цветовое пространство : YUV
    Субдискретизация насыщенности : 4:2:0
    Битовая глубина : 8 бит
    Тип развёртки : Прогрессивная
    Метод сжатия : С потерями
    Бит/(Пиксели*Кадры) : 0.334
    Размер потока : 13,9 Гбайт (88%)
    Default : Да
    Forced : Нет
    Аудио #1
    Идентификатор : 2
    Формат : AC-3
    Формат/Информация : Audio Coding 3
    Расширение режима : CM (complete main)
    Параметр Endianness формата : Big
    Идентификатор кодека : A_AC3
    Продолжительность : 2 ч. 0 м.
    Вид битрейта : Постоянный
    Битрейт : 448 Кбит/сек
    Каналы : 6 каналов
    Расположение каналов : Front: L C R, Side: L R, LFE
    Частота : 48,0 КГц
    Битовая глубина : 16 бит
    Метод сжатия : С потерями
    Размер потока : 385 Мбайт (2%)
    Заголовок : AC3 5.1, 448 kbps
    Язык : Russian
    Default : Да
    Forced : Нет
    Аудио #2
    Идентификатор : 3
    Формат : DTS
    Формат/Информация : Digital Theater Systems
    Режим : 16
    Параметр Endianness формата : Big
    Идентификатор кодека : A_DTS
    Продолжительность : 2 ч. 0 м.
    Вид битрейта : Постоянный
    Битрейт : 1152 Кбит/сек
    Каналы : 6 каналов
    Расположение каналов : Front: L C R, Side: L R, LFE
    Частота : 48,0 КГц
    Битовая глубина : 24 бит
    Метод сжатия : С потерями
    Размер потока : 989 Мбайт (6%)
    Заголовок : DTS 5.1, 1152 kbps
    Язык : English
    Default : Нет
    Forced : Нет
    Аудио #3
    Идентификатор : 4
    Формат : AC-3
    Формат/Информация : Audio Coding 3
    Расширение режима : CM (complete main)
    Параметр Endianness формата : Big
    Идентификатор кодека : A_AC3
    Продолжительность : 2 ч. 0 м.
    Вид битрейта : Постоянный
    Битрейт : 192 Кбит/сек
    Каналы : 2 канала
    Расположение каналов : Front: L R
    Частота : 48,0 КГц
    Битовая глубина : 16 бит
    Метод сжатия : С потерями
    Размер потока : 165 Мбайт (1%)
    Заголовок : AC3 2.0, 192 kbps
    Язык : English
    Default : Нет
    Forced : Нет

    Скриншоты для ознакомления

    Залил: R.G. Sky
    Размер скачиваемого торрента: 15.74 GB (16902590444 Bytes)

    Страна приливов/Tideland (2005) BDRemux | P скачать через торрент бесплатно
    загрузка...
    Рейтинг →
     (голосов: 1, оценка 4/5, голосовать можно 1 раз )

    Другие торренты по теме:

  • Страна приливов / Tideland (2005) BDRip 1080p торрент скачать бесплатно
  • Страна приливов / Tideland (2005) HDDVDRip-AVC от HELLYWOOD | P торрент скачать бесплатно
  • Страна приливов / Tideland (2005) BDRip-AVC от MediaClub | P скачать через торрент бесплатно
  • Страна приливов / Tideland (2005) HDRip от Scarabey | P скачать через торрент бесплатно
  • Страна приливов / Tideland (2005) BDRip 720p | P2 скачать торрент бесплатно


    • Комментарии (0):

      Информация

      Информация

        Посетители, находящиеся в группе Гости, не могут оставлять комментарии в данной новости.

        ↓ Меню



        ↓ Опрос

        А Вы добавили сайт в закладки?
        Да
        Не


        Top 10 за неделю (Фильмы)