.
Авторизация | Регистрация
Хочешь лучшие торренты? Добавь свой email!
Добавить
» » Невероятные приключения американца в Армении / Lost and Found in Armenia (2012) WEB-DL 720p от Сinemania скачать через торрент бесплатно




    Невероятные приключения американца в Армении / Lost and Found in Armenia (2012) WEB-DL 720p от Сinemania скачать через торрент бесплатно

    Опубликовал: Админ | Дата: 27-02-2015, 11:10 | Просмотров: 171


    Детально о кино
    Русское название:Невероятные приключения американца в Армении
    Русское название в мировом прокате:Lost and Found in Armenia
    Создали в:2012
    Категория жанра:Комедия
    Главный режиссер:Гор Киракосян
    Актеры:Дейв Шеридан, Джейми Кеннеди, Анджела Сарафян, Сердар Кэлсин, Бобби Беркмен, Мориса Харба, Алекс Калогномос, Марк Герагос, Вачик Мангассариан, Микаел Погосян
    Сюжет фильма:
    На морском побережье солнечной Турции царит беззаботное веселье, и только сын американского сенатора страдает от несчастной любви. Ничто не может вернуть ему вкус к жизни — ни море, ни друзья, ни красивые девушки. Но неожиданное событие вмиг излечивает героя от хандры: попутный ветер уносит его в соседнюю Армению, в маленькую горную деревню, где его — полуголого, с парашютом за спиной и говорящего на непонятном языке — принимают за турецко-азербайджанского шпиона. В стране, о существовании которой самонадеянный американец еще вчера даже не догадывался, его ждет невероятный водоворот событий — с похищением, перестрелкой, погоней и, конечно же, романтической историей…

    Официальный сайт
    Снималось в:США, Армения/Red Tie Films, Filmworks/FX
    Время просмотра:01:40:38
    Перевод текста:Дублированный Лицензия
    Файл
    Тип видео:MKV
    Качество фильма:WEB-DL 720p
    Информация о видео:MPEG-4 AVC, 3848 Кбит/с, 1280х720
    Информация о звуке:Русский (AC3, 6 ch, 384 Кбит/с)
    Субтитры:Русские
    Ограничение:
    12+ зрителям, достигшим 12 лет
    Media Info:

    Общее
    Уникальный идентификатор : 254140969098236377590642322493396192788 (0xBF31C52EFC3B3E81AAA420BDB0378E14)
    Полное имя : F:Раздача HDLost.and.Found.in.Armenia.2012.WEB.DL.720p.mkv
    Формат : Matroska
    Версия формата : Version 4/Version 2
    Размер файла : 3,04 Гбайт
    Продолжительность : 1 ч. 40 м.
    Общий поток : 4318 Кбит/сек
    Название фильма : Release Group CINEMANIA
    Дата кодирования : UTC 2014-10-23 16:45:11
    Программа кодирования : mkvmerge v7.2.0 (;On Every Street;) 64bit built on Sep 13 2014 15:52:10
    Библиотека кодирования : libebml v1.3.0 + libmatroska v1.4.1
    Видео
    Идентификатор : 1
    Формат : AVC
    Формат/Информация : Advanced Video Codec
    Профиль формата : High@L3.1
    Параметр CABAC формата : Нет
    Параметр ReFrames формата : 2 кадра
    Идентификатор кодека : V_MPEG4/ISO/AVC
    Продолжительность : 1 ч. 40 м.
    Битрейт : 3848 Кбит/сек
    Ширина : 1280 пикселей
    Высота : 720 пикселей
    Соотношение сторон : 16:9
    Режим частоты кадров : Постоянный
    Частота кадров : 24,000 кадра/сек
    Цветовое пространство : YUV
    Субдискретизация насыщенности : 4:2:0
    Битовая глубина : 8 бит
    Тип развёртки : Прогрессивная
    Бит/(Пиксели*Кадры) : 0.174
    Размер потока : 2,71 Гбайт (89%)
    Заголовок : Release Group CINEMANIA
    Язык : English
    Default : Да
    Forced : Нет
    Основные цвета : BT.709
    Характеристики трансфера : BT.709
    Коэффициенты матрицы : BT.709
    Аудио
    Идентификатор : 2
    Формат : AC-3
    Формат/Информация : Audio Coding 3
    Расширение режима : CM (complete main)
    Параметр Endianness формата : Big
    Идентификатор кодека : A_AC3
    Продолжительность : 1 ч. 40 м.
    Вид битрейта : Постоянный
    Битрейт : 384 Кбит/сек
    Каналы : 6 каналов
    Расположение каналов : Front: L C R, Side: L R, LFE
    Частота : 48,0 КГц
    Битовая глубина : 16 бит
    Метод сжатия : С потерями
    Размер потока : 276 Мбайт (9%)
    Заголовок : Лицензия
    Язык : Russian
    Default : Да
    Forced : Да
    Текст
    Идентификатор : 3
    Формат : UTF-8
    Идентификатор кодека : S_TEXT/UTF8
    Идентификатор кодека/Информация : UTF-8 Plain Text
    Язык : Russian
    Default : Да
    Forced : Да
    Скриншоты для ознакомления

    Релиз подготовил:
    Залил: grab777
    Размер скачиваемого торрента: 3.04 GB (3259310845 Bytes)

    Невероятные приключения американца в Армении/Lost and Found in Armenia (2012) WEB-DL 720p от Сinemania скачать через торрент бесплатно
    загрузка...
    Рейтинг →
     (голосов: 1, оценка 3/5, голосовать можно 1 раз )

    Другие торренты по теме:

  • Невероятные приключения янки в Африке / Yankee Zulu (1993) DVDRip-AVC
  • Невероятные приключения ДжоДжо / JoJo no Kimyou na Bouken (2012) HDTVRip 720
  • Ролли и Эльф: Невероятные приключения / Rolly and Elf: Unbelievable adventures (2007) BDRip 1080p
  • Ролли и Эльф: Невероятные приключения (2007) BDRip-AVC | iPad
  • Невероятные приключения американца в Армении / Lost and Found in Armenia (2012) DVDRip | P
  • Невероятные приключения Супер Дэйва / The Extreme Adventures of Super Dave (2000) HDTVRip 720p от MediaClub | P2
  • Невероятные приключения итальянцев в Нью-Йорке / La Leggenda Di Al, John E Jack (2002) DVDRip от Brazzass
  • Невероятные приключения Билла и Теда / Bill Teds Excellent Adventure (1989) BDRip от Rulya74 | P. A скачать через торрент бесплатно


    • Комментарии (0):

      Информация

      Информация

        Посетители, находящиеся в группе Гости, не могут оставлять комментарии в данной новости.

        ↓ Меню



        ↓ Опрос

        А Вы добавили сайт в закладки?
        Да
        Не


        Top 10 за месяц (Фильмы)