.
Авторизация | Регистрация
» » Белокурая невеста из Лунного Королевства / The White Haired Witch of Lunar Kingdom (2014) WEBDLRip-AVC от АРХАНГЕЛ | L2 скачать через торрент бесплатно




    Белокурая невеста из Лунного Королевства / The White Haired Witch of Lunar Kingdom (2014) WEBDLRip-AVC от АРХАНГЕЛ | L2 скачать через торрент бесплатно

    Опубликовал: Админ | Дата: 27-02-2015, 11:10 | Просмотров: 157


    Детально о кино
    Русское название:Белокурая невеста из Лунного Королевства
    Русское название в мировом прокате:The White Haired Witch of Lunar Kingdom
    Создали в:2014
    Категория жанра:фэнтези, боевик
    Главный режиссер:Чи ЛюнДжэйкобЧунг
    Актеры:Бинбин Фань, Хуан Сяомин, Вэньчжо Чжао и др.
    Сюжет фильма:
    Экранизация одноименного фэнтезийного романа китайского писателя Юйшэн Ляна расскажет историю о боевых искусствах, романтических отношениях и чести, преданной любви и мести.
    Главная героиня – мстительница, которая во имя Луны наказывает людей, провинившихся в совершении преступления, или поступивших недостойно и несправедливо. У девушки завяжутся романтические отношения с отважным воином. Их взаимная любовь, возможно, изменит судьбу всей нации…

    Снималось в:Китай
    Киностудия:Bona Film Group
    Время просмотра:01:39:32
    Перевод текста:Любительский (двухголосый закадровый) –группа GREEN TEA(Ольга Гринтиева и Дмитрий Познанский)
    Файл
    Кодек для видео:h.264 (MKV)
    Качество фильма:WEB-DLRip (AVC)
    Информация о видео:AVC, 1024 x 432, ~2 100 Kbps
    Информация о звуке:Russian: AC3, 192 kb/s (2 ch)/Chinese: AC3, 256 kb/s (2 ch)
    Субтитры:Chinese (hard sub)
    Семпл
    Скриншоты для ознакомления

    Релиз подготовил:
    MediaInfo
    General
    Unique ID : 172483791526552113726384126174686341850 (0x81C32B7EB6A21A13B1DAA57E1153EADA)
    Complete name : D: The White Haired Witch of Lunar Kingdom (2014) WEB-DLRip (AVC).mkv
    Format : Matroska
    Format version : Version 4/Version 2
    File size : 1.76 GiB
    Duration : 1h 39mn
    Overall bit rate : 2 536 Kbps
    Encoded date : UTC 2014-10-27 11:36:34
    Writing application : mkvmerge v7.2.0 (;On Every Street;) 64bit built on Sep 13 2014 15:52:10
    Writing library : libebml v1.3.0 + libmatroska v1.4.1
    DURATION : 01:39:32.608000000
    NUMBER_OF_FRAMES : 186644
    NUMBER_OF_BYTES : 191123456
    _STATISTICS_WRITING_APP : mkvmerge v7.2.0 (;On Every Street;) 64bit built on Sep 13 2014 15:52:10
    _STATISTICS_WRITING_DATE_UTC : 2014-10-27 11:36:34
    _STATISTICS_TAGS : BPS DURATION NUMBER_OF_FRAMES NUMBER_OF_BYTES
    Video
    ID : 1
    Format : AVC
    Format/Info : Advanced Video Codec
    Format profile : High@L4.1
    Format settings, CABAC : Yes
    Format settings, ReFrames : 4 frames
    Codec ID : V_MPEG4/ISO/AVC
    Duration : 1h 39mn
    Bit rate : 2 100 Kbps
    Width : 1 024 pixels
    Height : 432 pixels
    Display aspect ratio : 2.40:1
    Frame rate mode : Constant
    Frame rate : 25.000 fps
    Color space : YUV
    Chroma subsampling : 4:2:0
    Bit depth : 8 bits
    Scan type : Progressive
    Bits/(Pixel*Frame) : 0.190
    Stream size : 1.42 GiB (80%)
    Writing library : x264 core 125 r2200 999b753
    Encoding settings : cabac=1/ref=3/deblock=1:0:0/analyse=0x3:0x113/me=hex/subme=7/psy=1/psy_rd=1.00:0.00/mixed_ref=1/me_range=16/chroma_me=1/trellis=1/8x8dct=1/cqm=0/deadzone=21,11/fast_pskip=1/chroma_qp_offset=-2/threads=6/lookahead_threads=1/sliced_threads=0/nr=0/decimate=1/interlaced=0/bluray_compat=0/constrained_intra=0/bframes=3/b_pyramid=2/b_adapt=1/b_bias=0/direct=1/weightb=1/open_gop=0/weightp=2/keyint=250/keyint_min=25/scenecut=40/intra_refresh=0/rc_lookahead=40/rc=abr/mbtree=1/bitrate=2100/ratetol=1.0/qcomp=0.60/qpmin=0/qpmax=69/qpstep=4/ip_ratio=1.40/aq=1:1.00
    Language : English
    Default : Yes
    Forced : No
    Audio #1
    ID : 2
    Format : AC-3
    Format/Info : Audio Coding 3
    Mode extension : CM (complete main)
    Format settings, Endianness : Big
    Codec ID : A_AC3
    Duration : 1h 39mn
    Bit rate mode : Constant
    Bit rate : 192 Kbps
    Channel(s) : 2 channels
    Channel positions : Front: L R
    Sampling rate : 48.0 KHz
    Bit depth : 16 bits
    Compression mode : Lossy
    Stream size : 137 MiB (8%)
    Title : GREEN TEA
    Language : Russian
    Default : Yes
    Forced : No
    Audio #2
    ID : 3
    Format : AC-3
    Format/Info : Audio Coding 3
    Mode extension : CM (complete main)
    Format settings, Endianness : Big
    Codec ID : A_AC3
    Duration : 1h 39mn
    Bit rate mode : Constant
    Bit rate : 256 Kbps
    Channel(s) : 2 channels
    Channel positions : Front: L R
    Sampling rate : 48.0 KHz
    Bit depth : 16 bits
    Compression mode : Lossy
    Stream size : 182 MiB (10%)
    Language : Korean
    Default : No
    Forced : No

    Размер скачиваемого торрента: 1.76 GB (1893133154 Bytes)

    Белокурая невеста из Лунного Королевства/The White Haired Witch of Lunar Kingdom (2014) WEBDLRip-AVC от АРХАНГЕЛ | L2 скачать через торрент бесплатно
    загрузка...
    Рейтинг →
     (голосов: 1, оценка 3/5, голосовать можно 1 раз )

    Другие торренты по теме:



      Комментарии (0):

      Информация

      Информация

        Посетители, находящиеся в группе Гости, не могут оставлять комментарии в данной новости.

        ↓ Меню



        ↓ Опрос

        А Вы добавили сайт в закладки?
        Да
        Не


        Top 10 за неделю (Фильмы)