.
Авторизация | Регистрация
» » З / Л / О: Новый вирус / V / H / S: Viral (2014) WEB-DL 720p | L1 торрент скачать бесплатно




    З / Л / О: Новый вирус / V / H / S: Viral (2014) WEB-DL 720p | L1 торрент скачать бесплатно

    Опубликовал: Админ | Дата: 27-02-2015, 11:10 | Просмотров: 177


    Детально о кино
    Русское название: З/Л/О: Новый вирус
    Русское название в мировом прокате: V/H/S: Viral
    Создали в: 2014
    Категория жанра: ужасы, триллер
    Главный режиссер: Джастин Бенсон, Грегг Бишоп, Тодд Линкольн
    Актеры:Эмми Арго, Аманда Бэйкер, Рим Басма, Ник Бланко, Дэн Кодилл, Стивен Кодилл, Грейсон Чадвик, Линдсэй Клифт, Джавед Эль Берни, Лора Эшманн
    Сюжет фильма:История о подростках, одержимых желанием прославиться, которые невольно становятся звездами очередной интернет-сенсации…

    Снималось в: США
    Время просмотра: 01:21:10
    Тип перевода:Любительское (одноголосое) datynet
    Файл
    Тип видео: MKV
    Качество фильма: WEB-DL 720p
    Информация о видео: 4014 kb/s, 1280x720
    Информация о звуке: Russian: AC3, 192 kb/s (2 ch)/English: AC3, 384 kb/s (6 ch)
    Субтитры:English


    MI
    Format : Matroska
    Format version : Version 4/Version 2
    File size : 2.66 GiB
    Duration : 1h 21mn
    Overall bit rate : 4 683 Kbps
    Encoded date : UTC 2014-10-27 18:40:10
    Writing application : mkvmerge v6.1.0 (;Old Devil;) built on Mar 4 2013 09:10:42
    Writing library : libebml v1.3.0 + libmatroska v1.4.0
    Video
    ID : 1
    Format : AVC
    Format/Info : Advanced Video Codec
    Format profile : High@L3.1
    Format settings, CABAC : No
    Format settings, ReFrames : 2 frames
    Codec ID : V_MPEG4/ISO/AVC
    Duration : 1h 21mn
    Bit rate : 4 014 Kbps
    Width : 1 280 pixels
    Height : 720 pixels
    Display aspect ratio : 16:9
    Frame rate : 23.976 fps
    Color space : YUV
    Chroma subsampling : 4:2:0
    Bit depth : 8 bits
    Scan type : Progressive
    Bits/(Pixel*Frame) : 0.182
    Stream size : 2.28 GiB (86%)
    Language : English
    Default : Yes
    Forced : No
    Color primaries : BT.709-5, BT.1361, IEC 61966-2-4, SMPTE RP177
    Transfer characteristics : BT.709-5, BT.1361
    Matrix coefficients : BT.709-5, BT.1361, IEC 61966-2-4 709, SMPTE RP177
    Audio #1
    ID : 2
    Format : AC-3
    Format/Info : Audio Coding 3
    Mode extension : CM (complete main)
    Format settings, Endianness : Big
    Codec ID : A_AC3
    Duration : 1h 21mn
    Bit rate mode : Constant
    Bit rate : 192 Kbps
    Channel(s) : 2 channels
    Channel positions : Front: L R
    Sampling rate : 44.1 KHz
    Bit depth : 16 bits
    Compression mode : Lossy
    Stream size : 111 MiB (4%)
    Language : Russian
    Default : Yes
    Forced : No
    Audio #2
    ID : 3
    Format : AC-3
    Format/Info : Audio Coding 3
    Mode extension : CM (complete main)
    Format settings, Endianness : Big
    Codec ID : A_AC3
    Duration : 1h 21mn
    Bit rate mode : Constant
    Bit rate : 384 Kbps
    Channel(s) : 6 channels
    Channel positions : Front: L C R, Side: L R, LFE
    Sampling rate : 48.0 KHz
    Bit depth : 16 bits
    Compression mode : Lossy
    Stream size : 223 MiB (8%)
    Language : English
    Default : No
    Forced : No
    Text
    ID : 4
    Format : UTF-8
    Codec ID : S_TEXT/UTF8
    Codec ID/Info : UTF-8 Plain Text
    Language : English
    Default : No
    Forced : No
    Menu
    00:00:00.000 : en:1
    00:06:07.000 : en:2
    00:10:09.000 : en:3
    00:14:33.000 : en:4
    00:22:28.000 : en:5
    00:26:09.000 : en:6
    00:32:00.000 : en:7
    00:35:29.000 : en:8
    00:40:54.000 : en:9
    00:45:11.000 : en:10
    00:48:37.000 : en:11
    00:54:10.000 : en:12
    01:00:52.000 : en:13
    01:06:03.000 : en:14
    01:10:05.000 : en:15
    01:12:26.000 : en:16
    Скриншоты для ознакомления

    Размер скачиваемого торрента: 2.66 GB (2851573129 Bytes)

    З/Л/О: Новый вирус/V/H/S: Viral (2014) WEB-DL 720p | L1 торрент скачать бесплатно
    загрузка...
    Рейтинг →
     (голосов: 1, оценка 4/5, голосовать можно 1 раз )

    Другие торренты по теме:



      Комментарии (0):

      Информация

      Информация

        Посетители, находящиеся в группе Гости, не могут оставлять комментарии в данной новости.

        ↓ Меню



        ↓ Опрос

        А Вы добавили сайт в закладки?
        Да
        Не


        Top 10 за неделю (Фильмы)