.
Авторизация | Регистрация
Хочешь лучшие торренты? Добавь свой email!
Добавить
» » Заваруха в городе / City Heat (1984) WEB-DL 720p | P, A торрент скачать бесплатно




    Заваруха в городе / City Heat (1984) WEB-DL 720p | P, A торрент скачать бесплатно

    Опубликовал: Админ | Дата: 27-02-2015, 11:10 | Просмотров: 197


    Детально о кино
    Русское название:Заваруха в городе (Безумный город, Жар города)
    Русское название в мировом прокате:City Heat
    Создали в:1984
    Категория жанра:боевик, комедия, криминал
    Главный режиссер:Ричард Бенджамин
    Актеры:Клинт Иствуд, Бёрт Рейнолдс, Джейн Александер (I), Мэдлин Кан, Рип Торн, Айрин Кэра, Ричард Раундтри, Тони Ло Бьянко, Уильям Сэндерсон, Николас Уорт
    Сюжет фильма:
    1933 год, Канзас Сити. Смышленый частный детектив Мерфи ищет бандита, который жестоко разделался с его напарником. А шеф полиции Спир вообще бандитов не выносит, так что разговор у лейтенанта с уголовным элементом, как правило, получается короткий. Нельзя сказать, что Спир и Мерфи – в большом восторге друг от друга, но именно это, как ни странно, делает их идеальными партнерами в зачистке города от кровожадных преступников! Ведь заваруха как раз и начинается!

    Снималось в:США
    Киностудия:Deliverance Productions, The Malpaso Company, Warner Bros. Pictures
    Время просмотра:01:37:30
    Перевод текста:Профессиональный многоголосый, авторский
    Файл
    Кодек для видео:h.264
    Качество фильма:WEB-DL 720p
    Информация о видео:4096 Кбит/с, 1276x720, 23.976 кадр/с
    Информация о звуке:
    • №1: Русский (AC3, 2 ch, 192 Кбит/с) Профессиональный многоголосый iTunes Russia|
    • №2: Русский (AC3, 6 ch, 448 Кбит/с) Авторский одноголосый Алексей Михалев
    • №3: Русский (AC3, 6 ch, 448 Кбит/с) Авторский одноголосый Леонид Володарский
    • №4: Английский (AC3, 6 ch, 448 Кбит/с)
    Субтитры:Русские (форсированные, iTunes), русские (iTunes)
    MediaInfo

    Общее
    Уникальный идентификатор : 206537474753728968966591255392351671208 (0x9B61ABB4BD99046BBA117F3DC0FFD3A8)
    Полное имя : D:USD_downloadCity.Heat.1984.720p.WEB-DL.3xRus.Eng.HDCLUB.mkv
    Формат : Matroska
    Версия формата : Version 4/Version 2
    Размер файла : 3,91 Гбайт
    Продолжительность : 1 ч. 37 м.
    Общий поток : 5736 Кбит/сек
    Название фильма : City Heat (1984) - Release for HDCLUB
    Дата кодирования : UTC 2014-09-10 03:22:56
    Программа кодирования : mkvmerge v6.2.0 (;Promised Land;) built on Apr 28 2013 12:22:01
    Библиотека кодирования : libebml v1.3.0 + libmatroska v1.4.0
    Видео
    Идентификатор : 1
    Формат : AVC
    Формат/Информация : Advanced Video Codec
    Профиль формата : High@L3.1
    Параметр CABAC формата : Нет
    Параметр ReFrames формата : 2 кадра
    Идентификатор кодека : V_MPEG4/ISO/AVC
    Продолжительность : 1 ч. 37 м.
    Битрейт : 4086 Кбит/сек
    Ширина : 1276 пикселей
    Высота : 720 пикселей
    Соотношение сторон : 16:9
    Режим частоты кадров : Постоянный
    Частота кадров : 23,976 кадра/сек
    Цветовое пространство : YUV
    Субдискретизация насыщенности : 4:2:0
    Битовая глубина : 8 бит
    Тип развёртки : Прогрессивная
    Бит/(Пиксели*Кадры) : 0.185
    Размер потока : 2,78 Гбайт (71%)
    Заголовок : City Heat (1984) - Release for HDCLUB
    Язык : English
    Default : Да
    Forced : Нет
    Основные цвета : BT.709
    Характеристики трансфера : BT.709
    Коэффициенты матрицы : BT.709
    Аудио #1
    Идентификатор : 2
    Формат : AC-3
    Формат/Информация : Audio Coding 3
    Расширение режима : CM (complete main)
    Параметр Endianness формата : Big
    Идентификатор кодека : A_AC3
    Продолжительность : 1 ч. 37 м.
    Вид битрейта : Постоянный
    Битрейт : 448 Кбит/сек
    Каналы : 6 каналов
    Расположение каналов : Front: L C R, Side: L R, LFE
    Частота : 48,0 КГц
    Битовая глубина : 16 бит
    Метод сжатия : С потерями
    Размер потока : 312 Мбайт (8%)
    Заголовок : AC3 6 ch 448 kbps Алексей Михалев
    Язык : Russian
    Default : Да
    Forced : Нет
    Аудио #2
    Идентификатор : 3
    Формат : AC-3
    Формат/Информация : Audio Coding 3
    Расширение режима : CM (complete main)
    Параметр Endianness формата : Big
    Идентификатор кодека : A_AC3
    Продолжительность : 1 ч. 37 м.
    Вид битрейта : Постоянный
    Битрейт : 448 Кбит/сек
    Каналы : 6 каналов
    Расположение каналов : Front: L C R, Side: L R, LFE
    Частота : 48,0 КГц
    Битовая глубина : 16 бит
    Метод сжатия : С потерями
    Размер потока : 312 Мбайт (8%)
    Заголовок : AC3 6 ch 448 kbps Леонид Володарский
    Язык : Russian
    Default : Нет
    Forced : Нет
    Аудио #3
    Идентификатор : 4
    Формат : AC-3
    Формат/Информация : Audio Coding 3
    Расширение режима : CM (complete main)
    Параметр Endianness формата : Big
    Идентификатор кодека : A_AC3
    Продолжительность : 1 ч. 37 м.
    Вид битрейта : Постоянный
    Битрейт : 192 Кбит/сек
    Каналы : 2 канала
    Расположение каналов : Front: L R
    Частота : 48,0 КГц
    Битовая глубина : 16 бит
    Метод сжатия : С потерями
    Размер потока : 134 Мбайт (3%)
    Заголовок : AC3 2 ch 192 kbps MVO
    Язык : Russian
    Default : Нет
    Forced : Нет
    Аудио #4
    Идентификатор : 5
    Формат : AC-3
    Формат/Информация : Audio Coding 3
    Расширение режима : CM (complete main)
    Параметр Endianness формата : Big
    Идентификатор кодека : A_AC3
    Продолжительность : 1 ч. 37 м.
    Вид битрейта : Постоянный
    Битрейт : 448 Кбит/сек
    Каналы : 6 каналов
    Расположение каналов : Front: L C R, Side: L R, LFE
    Частота : 48,0 КГц
    Битовая глубина : 16 бит
    Метод сжатия : С потерями
    Размер потока : 312 Мбайт (8%)
    Заголовок : AC3 6 ch 448 kbps (DVD)
    Язык : English
    Default : Нет
    Forced : Нет
    Текст #1
    Идентификатор : 6
    Формат : UTF-8
    Идентификатор кодека : S_TEXT/UTF8
    Идентификатор кодека/Информация : UTF-8 Plain Text
    Заголовок : Forced
    Язык : Russian
    Default : Да
    Forced : Нет
    Текст #2
    Идентификатор : 7
    Формат : UTF-8
    Идентификатор кодека : S_TEXT/UTF8
    Идентификатор кодека/Информация : UTF-8 Plain Text
    Язык : Russian
    Default : Нет
    Forced : Нет
    Меню
    00:00:00.000 : en:1. Beginning
    00:03:35.000 : en:2. Lou;s Diner
    00:08:12.000 : en:3. Murphy;s Situation
    00:12:42.000 : en:4. Bouncing Bonus
    00:16:45.000 : en:5. Double-Dealer Dehl
    00:21:13.000 : en:6. Fight Night
    00:24:04.000 : en:7. Coll;s Threat
    00:28:31.000 : en:8. Surprise Guests
    00:33:48.000 : en:9. Financial Rearrangements
    00:38:33.000 : en:10. Next Truck Coming Along
    00:42:21.000 : en:11. Just Want the Bullet
    00:45:58.000 : en:12. Lady in Distress
    00:49:44.000 : en:13. Good at Taking off
    00:54:44.000 : en:14. Meeting Ginny
    00:56:45.000 : en:15. Still Freezing
    00:58:18.000 : en:16. Ginny;s Accident
    01:02:39.000 : en:17. The Goods
    01:05:41.000 : en:18. Boulevard of Bullets
    01:10:12.000 : en:19. Speer Calls the Shots
    01:14:18.000 : en:20. Giving It to Pitt
    01:17:40.000 : en:21. Big Guns Come Out
    01:19:14.000 : en:22. Heating Things up
    01:24:10.000 : en:23. Lady and Her Rescuers
    01:28:31.000 : en:24. Busting up the Game
    01:30:26.000 : en:25. Sooner
    01:32:57.000 : en:26. Abhorrent Violence
    Скриншоты для ознакомления



    Релиз подготовил:
    Залил: 0ptimus
    Размер скачиваемого торрента: 3.91 GB (4194834015 Bytes)

    Заваруха в городе/City Heat (1984) WEB-DL 720p | P, A торрент скачать бесплатно
    загрузка...
    Рейтинг →
     (голосов: 1, оценка 3/5, голосовать можно 1 раз )

    Другие торренты по теме:

  • Заваруха в городе / City Heat (1984) WEB-DLRip | Михалёв
  • Заваруха в городе / City Heat (1984) BDRip от Koenig | P


    • Комментарии (0):

      Информация

      Информация

        Посетители, находящиеся в группе Гости, не могут оставлять комментарии в данной новости.

        ↓ Меню



        ↓ Опрос

        А Вы добавили сайт в закладки?
        Да
        Не


        Top 10 за месяц (Фильмы)