.
Авторизация | Регистрация
» » Красная жара / Red Heat (1988) DVD-9 торрент скачать бесплатно




    Красная жара / Red Heat (1988) DVD-9 торрент скачать бесплатно

    Опубликовал: Админ | Дата: 27-02-2015, 11:10 | Просмотров: 152


    Детально о кино
    Русское название:Красная жара
    Русское название в мировом прокате:Red Heat
    Создали в:1988
    Категория жанра:Боевик, триллер, комедия, криминал
    Главный режиссер:Уолтер Хилл
    Актеры:Арнольд Шварценеггер, Джеймс Белуши, Питер Бойл, Эд О’Росс, Лоуренс Фишборн, Джина Гершон, Ричард Брайт, Дж.В. Смит, Брент Дженнингс, Гретхен Палмер, Прюитт Тейлор Винс, Майкл Дж. Хэгерти, Брайон Джеймс, Глория Делани, Питер Джейсон, Олег Видов, Савелий Крамаров, Джин Шерер, Тенгиз Борисофф, Роджер Каллард, Габор Конц, Геза Балкаи, Жолт Кёртвейешши, Янош Бан
    Сюжет фильма:В доперестроечные времена торговля наркотиками была из ряда вон выходящим преступлением. На борьбу с грузинским мафиози, который используя все связи США, пытается пристрастить к кокаину советских граждан, выходит гроза преступного мира милиционер Иван Данко. Этот парень не любит шутить, и доказательством серьезности его намерений служат большие мускулы и пистолет. Чтобы арестовать бандита, Иван направляется в Чикаго — рассадник капиталистической заразы. Там его помощником становится болтливый полицейский. Вместе они обезвреживают мафиози, разрушив при этом полгорода и расстреляв пару десятков негодяев.

    Снималось в:США
    Киностудия:Carolco Pictures Inc., Lone Wolf Films, Oak Pictures
    Время просмотра:01:44:21
    Перевод текста:Профессиональный многоголосый, профессиональный двухголосый, авторский
    Файл
    Кодек для видео:MPEG-2
    Качество фильма:DVD-9
    Информация о видео:MPEG2, PAL, 16:9 (720x576) VBR, 25 кадр/с
    Информация о звуке:Русский/Английский/Английский DD 5.1 (448Kbps)
    Перевод

    1. Профессиональный многоголосый
    2. Авторский (Живов)
    3. Авторский (Горчаков)
    4. Авторский (Пучков)
    5. Авторский (Гаврилов)
    6. Авторский (Володарский)
    7. Профессиональный двухголосый
    8. Английский
    Меню
    DVDInfo
    Title:
    Size: 6.33 Gb ( 6 641 502 KBytes ) - DVD-9
    Enabled regions: 1, 2, 3, 4, 5, 6, 7, 8
    VTS_01 :
    Play Length: 01:44:21+00:26:05
    Video: PAL 16:9 (720x576) VBR, Auto PanScan
    Audio:
    English (Dolby AC3, 6 ch)
    Russian (Dolby AC3, 6 ch)
    Russian (Dolby AC3, 6 ch)
    Russian (Dolby AC3, 6 ch)
    Russian (Dolby AC3, 6 ch)
    Russian (Dolby AC3, 6 ch)
    Russian (Dolby AC3, 6 ch)
    English (Dolby AC3, 6 ch)
    Menu Video:
    PAL 4:3 (704x576) VBR
    Menu English Language Unit :
    Root Menu
    MediaInfo
    Общее
    Полное имя : D:ААА2КРАСНАЯ ЖАРАVIDEO_TSVTS_01_1.VOB
    Формат : MPEG-PS
    Размер файла : 1000 Мбайт
    Продолжительность : 20 м.
    Режим общего битрейта : Переменный
    Общий поток : 6882 Кбит/сек
    Видео
    Идентификатор : 224 (0xE0)
    Формат : MPEG Video
    Версия формата : Version 2
    Профиль формата : Main@Main
    Параметр BVOP формата : Да
    Параметр матрицы формата : По умолчанию
    Параметр GOP формата : M=3, N=12
    Продолжительность : 20 м.
    Вид битрейта : Переменный
    Битрейт : 3161 Кбит/сек
    Максимальный битрейт : 7712 Кбит/сек
    Ширина : 720 пикселей
    Высота : 576 пикселей
    Соотношение сторон : 16:9
    Частота кадров : 24,000 кадра/сек
    Стандарт вещания : PAL
    Цветовое пространство : YUV
    Субдискретизация насыщенности : 4:2:0
    Битовая глубина : 8 бит
    Тип развёртки : Прогрессивная
    Порядок развёртки : 2:2:2:2:2:2:2:2:2:2:2:3 Pulldown
    Метод сжатия : С потерями
    Бит/(Пиксели*Кадры) : 0.318
    TimeCode_FirstFrame : 00:00:00:00
    TimeCode_Source : Group of pictures t_head
    Размер потока : 459 Мбайт (46%)
    Аудио #1
    Идентификатор : 189 (0xBD)-128 (0x80)
    Формат : AC-3
    Формат/Информация : Audio Coding 3
    Расширение режима : CM (complete main)
    Параметр Endianness формата : Big
    Режим смешивания : DVD-Video
    Продолжительность : 20 м.
    Вид битрейта : Постоянный
    Битрейт : 448 Кбит/сек
    Каналы : 6 каналов
    Расположение каналов : Front: L C R, Side: L R, LFE
    Частота : 48,0 КГц
    Битовая глубина : 16 бит
    Метод сжатия : С потерями
    Размер потока : 65,1 Мбайт (7%)
    Аудио #2
    Идентификатор : 189 (0xBD)-129 (0x81)
    Формат : AC-3
    Формат/Информация : Audio Coding 3
    Расширение режима : CM (complete main)
    Параметр Endianness формата : Big
    Режим смешивания : DVD-Video
    Продолжительность : 20 м.
    Вид битрейта : Постоянный
    Битрейт : 448 Кбит/сек
    Каналы : 6 каналов
    Расположение каналов : Front: L C R, Side: L R, LFE
    Частота : 48,0 КГц
    Битовая глубина : 16 бит
    Метод сжатия : С потерями
    Размер потока : 65,1 Мбайт (7%)
    Аудио #3
    Идентификатор : 189 (0xBD)-130 (0x82)
    Формат : AC-3
    Формат/Информация : Audio Coding 3
    Расширение режима : CM (complete main)
    Параметр Endianness формата : Big
    Режим смешивания : DVD-Video
    Продолжительность : 20 м.
    Вид битрейта : Постоянный
    Битрейт : 448 Кбит/сек
    Каналы : 6 каналов
    Расположение каналов : Front: L C R, Side: L R, LFE
    Частота : 48,0 КГц
    Битовая глубина : 16 бит
    Метод сжатия : С потерями
    Размер потока : 65,1 Мбайт (7%)
    Аудио #4
    Идентификатор : 189 (0xBD)-131 (0x83)
    Формат : AC-3
    Формат/Информация : Audio Coding 3
    Расширение режима : CM (complete main)
    Параметр Endianness формата : Big
    Режим смешивания : DVD-Video
    Продолжительность : 20 м.
    Вид битрейта : Постоянный
    Битрейт : 448 Кбит/сек
    Каналы : 6 каналов
    Расположение каналов : Front: L C R, Side: L R, LFE
    Частота : 48,0 КГц
    Битовая глубина : 16 бит
    Метод сжатия : С потерями
    Размер потока : 65,1 Мбайт (7%)
    Аудио #5
    Идентификатор : 189 (0xBD)-132 (0x84)
    Формат : AC-3
    Формат/Информация : Audio Coding 3
    Расширение режима : CM (complete main)
    Параметр Endianness формата : Big
    Режим смешивания : DVD-Video
    Продолжительность : 20 м.
    Вид битрейта : Постоянный
    Битрейт : 448 Кбит/сек
    Каналы : 6 каналов
    Расположение каналов : Front: L C R, Side: L R, LFE
    Частота : 48,0 КГц
    Битовая глубина : 16 бит
    Метод сжатия : С потерями
    Размер потока : 65,1 Мбайт (7%)
    Аудио #6
    Идентификатор : 189 (0xBD)-133 (0x85)
    Формат : AC-3
    Формат/Информация : Audio Coding 3
    Расширение режима : CM (complete main)
    Параметр Endianness формата : Big
    Режим смешивания : DVD-Video
    Продолжительность : 20 м.
    Вид битрейта : Постоянный
    Битрейт : 448 Кбит/сек
    Каналы : 6 каналов
    Расположение каналов : Front: L C R, Side: L R, LFE
    Частота : 48,0 КГц
    Битовая глубина : 16 бит
    Метод сжатия : С потерями
    Размер потока : 65,1 Мбайт (7%)
    Аудио #7
    Идентификатор : 189 (0xBD)-134 (0x86)
    Формат : AC-3
    Формат/Информация : Audio Coding 3
    Расширение режима : CM (complete main)
    Параметр Endianness формата : Big
    Режим смешивания : DVD-Video
    Продолжительность : 20 м.
    Вид битрейта : Постоянный
    Битрейт : 448 Кбит/сек
    Каналы : 6 каналов
    Расположение каналов : Front: L C R, Side: L R, LFE
    Частота : 48,0 КГц
    Битовая глубина : 16 бит
    Метод сжатия : С потерями
    Размер потока : 65,1 Мбайт (7%)
    Аудио #8
    Идентификатор : 189 (0xBD)-135 (0x87)
    Формат : AC-3
    Формат/Информация : Audio Coding 3
    Расширение режима : CM (complete main)
    Параметр Endianness формата : Big
    Режим смешивания : DVD-Video
    Продолжительность : 20 м.
    Вид битрейта : Постоянный
    Битрейт : 448 Кбит/сек
    Каналы : 6 каналов
    Расположение каналов : Front: L C R, Side: L R, LFE
    Частота : 48,0 КГц
    Битовая глубина : 16 бит
    Метод сжатия : С потерями
    Размер потока : 65,1 Мбайт (7%)
    Меню

    Скриншоты для ознакомления

    Залил: YArl
    Размер скачиваемого торрента: 6.33 GB (6800898048 Bytes)

    Красная жара/Red Heat (1988) DVD-9 торрент скачать бесплатно
    загрузка...
    Рейтинг →
     (голосов: 1, оценка 4/5, голосовать можно 1 раз )

    Другие торренты по теме:

  • Красная жара / Red Heat (1988) HDRip | A торрент скачать бесплатно
  • OST - Красная жара / Red Heat (1988) MP3 торрент скачать бесплатно
  • Красная жара / Red Heat (1988) BDRip-AVC | EU Transfer торрент скачать бесплатно
  • Красная жара / Красное каление / Red Heat (1985) VHSRip торрент скачать бесплатно
  • Красная Жара / Red Heat (1988) HDRip | КПК от Assassins Creed скачать через торрент бесплатно
  • Красная жара / Red Hot (1993) DVDRip скачать через торрент бесплатно
  • Красная жара / Red Heat (1988) BDRip 720p | EU Transfer скачать через торрент бесплатно
  • Красная жара / Red Heat (1988) HDRip от Scarabey | Р торрент скачать бесплатно


    • Комментарии (0):

      Информация

      Информация

        Посетители, находящиеся в группе Гости, не могут оставлять комментарии в данной новости.

        ↓ Меню



        ↓ Опрос

        А Вы добавили сайт в закладки?
        Да
        Не


        Top 10 за неделю (Фильмы)