.
Авторизация | Регистрация
Хочешь лучшие торренты? Добавь свой email!
Добавить
» » Пропавший медальон / The Lost Medallion: The Adventures of Billy Stone (2013) DVD9 | P торрент скачать бесплатно




    Пропавший медальон / The Lost Medallion: The Adventures of Billy Stone (2013) DVD9 | P торрент скачать бесплатно

    Опубликовал: Админ | Дата: 27-02-2015, 11:10 | Просмотров: 151


    Детально о кино
    Русское название:Пропавший медальон
    Русское название в мировом прокате:The Lost Medallion: The Adventures of Billy Stone
    Создали в:2013
    Категория жанра:Приключения, семейный, фэнтези
    Главный режиссер:Билл Мьюир
    Актеры:Билли Ангер, Сэмми Ханратти, Джеймс Хонг, Марк Дакаскос, Джэнсен Панеттьер, Уильям Коркери, Алекс Кендрик, Марк Дакаскос, Лиза ЛоЦицеро, Хэл Рубник, Сидни С. Лиуфа
    Сюжет фильма:Археолог Майкл Стоун искал утерянный медальон всю свою жизнь. Теперь уже его сын Билли продолжает эти поиски. Однажды Билли улыбнулась удача, и заветный медальон оказывается у него в руках. Вместе со своим лучшим другом Олли, поддавшись спонтанному желанию, они неожиданно попадают назад на 200 лет…

    Снималось в:США
    Киностудия:Downes Brothers Entertainment, Kaos Entertainment Inc., MeThinx Entertainment
    Время просмотра:01:38:10
    Перевод текста:Профессиональный многоголосый закадровый
    Файл
    Кодек для видео:MPEG-2
    Качество фильма:DVD-9
    Информация о видео:MPEG2, PAL, 16:9 (720x576) VBR, 25 кадр/с
    Информация о звуке:Русский/Английский/DD 2.0 (192Kbps); Английский DD 5.1 (384Kbps)
    Перевод

    1. Профессиональный многоголосый закадровый
    2. Английский
    3. Английский
    Меню
    DVDInfo
    Title:
    Size: 5.78 Gb ( 6 057 674 KBytes ) - DVD-9
    Enabled regions: 1, 2, 3, 4, 5, 6, 7, 8
    VTS_01 :
    Play Length: 01:38:10
    Video: PAL 16:9 (720x576) VBR, Auto PanScan
    Audio:
    Russian (Dolby AC3, 2 ch)
    English (Dolby AC3, 6 ch)
    English (Dolby AC3, 2 ch)
    Menu Video:
    PAL 4:3 (704x576) VBR
    Menu English Language Unit :
    Root Menu
    MediaInfo
    Общее
    Полное имя : D:ААА2Пропавший медальонVIDEO_TSVTS_01_1.VOB
    Формат : MPEG-PS
    Размер файла : 1000 Мбайт
    Продолжительность : 17 м.
    Режим общего битрейта : Переменный
    Общий поток : 8210 Кбит/сек
    Видео
    Идентификатор : 224 (0xE0)
    Формат : MPEG Video
    Версия формата : Version 2
    Профиль формата : Main@Main
    Параметр BVOP формата : Да
    Параметр матрицы формата : По умолчанию
    Параметр GOP формата : M=3, N=12
    Продолжительность : 17 м.
    Вид битрейта : Переменный
    Битрейт : 7278 Кбит/сек
    Максимальный битрейт : 8840 Кбит/сек
    Ширина : 720 пикселей
    Высота : 576 пикселей
    Соотношение сторон : 16:9
    Частота кадров : 24,000 кадра/сек
    Стандарт вещания : PAL
    Цветовое пространство : YUV
    Субдискретизация насыщенности : 4:2:0
    Битовая глубина : 8 бит
    Тип развёртки : Прогрессивная
    Порядок развёртки : 2:2:2:2:2:2:2:2:2:2:2:3 Pulldown
    Метод сжатия : С потерями
    Бит/(Пиксели*Кадры) : 0.731
    TimeCode_FirstFrame : 00:00:00:00
    TimeCode_Source : Group of pictures t_head
    Размер потока : 887 Мбайт (89%)
    Аудио #1
    Идентификатор : 189 (0xBD)-128 (0x80)
    Формат : AC-3
    Формат/Информация : Audio Coding 3
    Расширение режима : CM (complete main)
    Параметр Endianness формата : Big
    Режим смешивания : DVD-Video
    Продолжительность : 17 м.
    Вид битрейта : Постоянный
    Битрейт : 192 Кбит/сек
    Каналы : 2 канала
    Расположение каналов : Front: L R
    Частота : 48,0 КГц
    Битовая глубина : 16 бит
    Метод сжатия : С потерями
    Размер потока : 23,4 Мбайт (2%)
    Аудио #2
    Идентификатор : 189 (0xBD)-129 (0x81)
    Формат : AC-3
    Формат/Информация : Audio Coding 3
    Расширение режима : CM (complete main)
    Параметр Endianness формата : Big
    Режим смешивания : DVD-Video
    Продолжительность : 17 м.
    Вид битрейта : Постоянный
    Битрейт : 384 Кбит/сек
    Каналы : 5 каналов
    Расположение каналов : Front: L C R, Side: L R
    Частота : 48,0 КГц
    Битовая глубина : 16 бит
    Метод сжатия : С потерями
    Размер потока : 46,8 Мбайт (5%)
    Аудио #3
    Идентификатор : 189 (0xBD)-130 (0x82)
    Формат : AC-3
    Формат/Информация : Audio Coding 3
    Расширение режима : CM (complete main)
    Параметр Endianness формата : Big
    Режим смешивания : DVD-Video
    Продолжительность : 17 м.
    Вид битрейта : Постоянный
    Битрейт : 192 Кбит/сек
    Каналы : 2 канала
    Расположение каналов : Front: L R
    Частота : 48,0 КГц
    Битовая глубина : 16 бит
    Метод сжатия : С потерями
    Размер потока : 23,4 Мбайт (2%)
    Меню

    Скриншоты для ознакомления

    Залил: YArl
    Размер скачиваемого торрента: 5.78 GB (6203058176 Bytes)

    Пропавший медальон/The Lost Medallion: The Adventures of Billy Stone (2013) DVD9 | P торрент скачать бесплатно
    загрузка...
    Рейтинг →
     (голосов: 1, оценка 4/5, голосовать можно 1 раз )

    Другие торренты по теме:

  • Пропавший медальон / The Lost Medallion: The Adventures of Billy Stone (2013) HDRip | L1
  • Пропавший медальон / The Lost Medallion: The Adventures of Billy Stone (2013) BDRip 720p от CINEMANIA скачать через торрент бесплатно
  • Пропавший медальон / The Lost Medallion: The Adventures of Billy Stone (2013) BDRip-AVC от ExKinoRay | L1 скачать через торрент бесплатно
  • Пропавший медальон / The Lost Medallion: The Adventures of Billy Stone (2013) BDRip 720p от Leonardo and Scarabey | L1 скачать через торрент бесплатно
  • Пропавший медальон / The Lost Medallion: The Adventures of Billy Stone (2013) BDRip-AVC от potroks | L1 скачать через торрент бесплатно
  • Пропавший медальон / The Lost Medallion: The Adventures of Billy Stone скачать через торрент бесплатно


    • Комментарии (0):

      Информация

      Информация

        Посетители, находящиеся в группе Гости, не могут оставлять комментарии в данной новости.

        ↓ Меню



        ↓ Опрос

        А Вы добавили сайт в закладки?
        Да
        Не


        Top 10 за месяц (Фильмы)