.
Авторизация | Регистрация
» » Чернобыль. Зона отчуждения (2014) WEB-DLRip от Generalfilm | КПК торрент скачать бесплатно




    Чернобыль. Зона отчуждения (2014) WEB-DLRip от Generalfilm | КПК торрент скачать бесплатно

    Опубликовал: Админ | Дата: 27-02-2015, 11:10 | Просмотров: 353


    Детально о кино
    Русское название в мировом прокате: Чернобыль. Зона отчуждения
    Создали в: 2014
    Категория жанра: Мистический триллер
    Главный режиссер: Андерс Банке
    Актеры: Кристина Казинская, Евгений Стычкин, Валерия Дмитриева, Сергей Романович, Константин Давыдов, Анвар Халилулаев, Илья Щербинин, Илья Ермолов, Михаил Куряев, Андрей Соломонов, Евгения Каверау, Ива Солоницына
    Сюжет фильма:
    Никто не вернется прежним. Пятеро молодых людей прыгают в старую Волгу и отправляются на поиски вора, часом ранее укравшего из квартиры родителей главного героя восемь миллионов рублей. Грабитель — обычный московский айтишник, — вместо того чтобы залечь на дно, тут же записывает видеоотчет, в котором сообщает, что финальная точка его путешествия — Чернобыльская АЭС и город Припять.

    Снималось в:Россия
    Киностудия:СинеЛаб Продакшн
    Время просмотра:8 х ~ 00:45:00
    Перевод текста:Не требуется
    Файл
    Тип видео:MP4
    Качество фильма:WEB-DLRip | КПК
    Информация о видео:MPEG-4 AVC (x264), 640x360, ~500 kbps, 25.000 fps
    Информация о звуке:AAC LC, 48.0 KHz, 2 ch, 128 Kbps
    Субтитры:Нет
    Семпл
    Скриншоты для ознакомления

    MI
    Complete name : E:KinoChernobyl.Zona.Otchuzhdeniya.AVC.WEB-DLRip.KPK.GeneralfilmChernobyl.Zona.Otchuzhdeniya.S01.2014.AVC.WEB-DLRip.KPK.GeneralfilmChernobyl.Zona.Otchuzhdeniya.s01e04.2014.AVC.WEB-DLRip.KPK.Generalfilm.mp4
    Format : MPEG-4
    Format profile : Base Media
    Codec ID : isom
    File size : 201 MiB
    Duration : 44mn 29s
    Overall bit rate mode : Variable
    Overall bit rate : 630 Kbps
    Encoded date : UTC 2014-10-23 11:22:40
    Tagged date : UTC 2014-10-23 11:22:40
    Video
    ID : 1
    Format : AVC
    Format/Info : Advanced Video Codec
    Format profile : Baseline@L4.1
    Format settings, CABAC : No
    Format settings, ReFrames : 6 frames
    Codec ID : avc1
    Codec ID/Info : Advanced Video Coding
    Duration : 44mn 29s
    Bit rate : 500 Kbps
    Maximum bit rate : 2 714 Kbps
    Width : 640 pixels
    Height : 360 pixels
    Display aspect ratio : 16:9
    Frame rate mode : Constant
    Frame rate : 25.000 fps
    Color space : YUV
    Chroma subsampling : 4:2:0
    Bit depth : 8 bits
    Scan type : Progressive
    Bits/(Pixel*Frame) : 0.087
    Stream size : 159 MiB (79%)
    Writing library : x264 core 125 r2200 999b753
    Encoding settings : cabac=0/ref=6/deblock=1:-1:-1/analyse=0x1:0x111/me=umh/subme=7/psy=1/psy_rd=1.00:0.00/mixed_ref=0/me_range=16/chroma_me=1/trellis=1/8x8dct=0/cqm=0/deadzone=21,11/fast_pskip=0/chroma_qp_offset=-2/threads=12/lookahead_threads=2/sliced_threads=0/nr=0/decimate=1/interlaced=0/bluray_compat=0/constrained_intra=0/bframes=0/weightp=0/keyint=250/keyint_min=25/scenecut=40/intra_refresh=0/rc_lookahead=60/rc=2pass/mbtree=1/bitrate=500/ratetol=1.0/qcomp=0.60/qpmin=0/qpmax=69/qpstep=4/cplxblur=20.0/qblur=0.5/ip_ratio=1.40/aq=1:1.00
    Encoded date : UTC 2014-10-23 11:22:40
    Tagged date : UTC 2014-10-23 11:22:44
    Audio
    ID : 2
    Format : AAC
    Format/Info : Advanced Audio Codec
    Format profile : LC
    Codec ID : 40
    Duration : 44mn 29s
    Bit rate mode : Variable
    Bit rate : 128 Kbps
    Maximum bit rate : 150 Kbps
    Channel count : 2 channels
    Channel positions : Front: L R
    Sampling rate : 48.0 KHz
    Compression mode : Lossy
    Stream size : 40.6 MiB (20%)
    Encoded date : UTC 2014-10-23 11:22:44
    Tagged date : UTC 2014-10-23 11:22:44

    Релиз подготовил:Спс за исходник:
    Залил: toys_watch
    Размер скачиваемого торрента: 1.63 GB (1747131267 Bytes)

    Чернобыль. Зона отчуждения (2014) WEB-DLRip от Generalfilm | КПК торрент скачать бесплатно
    загрузка...
    Рейтинг →
     (голосов: 1, оценка 5/5, голосовать можно 1 раз )

    Другие торренты по теме:



      Комментарии (0):

      Информация

      Информация

        Посетители, находящиеся в группе Гости, не могут оставлять комментарии в данной новости.

        ↓ Меню



        ↓ Опрос

        А Вы добавили сайт в закладки?
        Да
        Не


        Top 10 за неделю (Фильмы)