.
Авторизация | Регистрация
Хочешь лучшие торренты? Добавь свой email!
Добавить
» » Семь психопатов / Seven Psychopaths (2012) BDRip-AVC от 0ptimus | D, А скачать через торрент бесплатно




    Семь психопатов / Seven Psychopaths (2012) BDRip-AVC от 0ptimus | D, А скачать через торрент бесплатно

    Опубликовал: Админ | Дата: 27-02-2015, 11:10 | Просмотров: 148


    Семь психопатов
    | Seven Psychopaths |

    Детально о кино
    Русское название:Семь психопатов
    Русское название в мировом прокате:Seven Psychopaths
    Создали в:2012
    Категория жанра:Комедия, криминал
    Главный режиссер:Мартин МакДона
    Актеры:Колин Фаррелл, Сэм Рокуэлл, Кристофер Уокен, Вуди Харрельсон, Том Уэйтс, Эбби Корниш, Желько Иванек, Майкл Питт, Майкл Стулбарг, Габури Сидибе, Гарри Дин Стэнтон, Лонг Нгуйен, Джозеф Лайл Тейлор, Кевин Корригэн, Хелена Мэттссон, Линда Мари Брайт, Джеймс Хеберт, Кристофер Герман, Кристиан Барильяс, Кристин Мардзано, Фрэнк Альварез, Брендан Секстон III, Аманда Уоррен, Джон Бишоп
    Сюжет фильма:
    Непутевый писатель потерял вдохновение и никак не может справиться с новым сценарием. Волей случая он оказывается втянутым в похищение собаки, затеянное его эксцентричными дружками. Выясняется, что украденное животное — любимый пёс главного местного гангстера, которому ничего не стоит в два счета вычислить и уничтожить оболтусов.

    Снималось в:Великобритания
    Киностудия:Blueprint Pictures, British Film Institute (BFI)
    Время просмотра:01:50:23
    Перевод текста:Дублированный, авторский (одноголосый закадровый)
    Файл
    Кодек для видео:h.264
    Качество фильма:BDRip-AVC
    Информация о видео:MPEG-4 AVC, 2856 Кбит/с, 1024x426, 23.976 кадр/с
    Информация о звуке:
    • №1: Русский (AC3, 6 ch, 384 Кбит/с) Дублированный BD
    • №2: Русский (AC3, 6 ch, 384 Кбит/с) Авторский одноголосый Дмитрий Пучков Гоблин
    • №3: Русский (AC3, 6 ch, 384 Кбит/с) Авторский одноголосый Юрий Сербин
    • №4: Русский (AC3, 6 ch, 384 Кбит/с) Авторский одноголосый Владимир Завгородний
    • №5: Украинский (AC3, 6 ch, 384 Кбит/с) Профессиональный многоголосый Студия AAA-sound по заказу Caravella-DDC
    • №6: Английский (AC3, 6 ch, 384 Кбит/с)
    Субтитры:Русские (2 вида), английские (полные (3 вида), форсированные, SDH, SDH цветные) – спасибо subsvin2
    MediaInfo

    --------------------------------------------------------------------------------------
    x264 info: frame I:1192 Avg QP:16.07 size: 88368
    x264 info: frame P:29923 Avg QP:18.69 size: 30824
    x264 info: frame B:127693 Avg QP:20.75 size: 10486
    --------------------------------------------------------------------------------------
    Полное имя : Seven.Psychopaths.2012.x264.BDRip-AVC.0ptimus.mkv
    Формат : Matroska
    Версия формата : Version 2
    Размер файла : 3,98 Гбайт
    Продолжительность : 1 ч. 50 м.
    Общий поток : 5166 Кбит/сек
    Название фильма : Семь психопатов | Seven Psychopaths 2012 -= BDRip (AVC) by 0ptimus =-
    Дата кодирования : UTC 2014-10-28 13:31:16
    Программа кодирования : mkvmerge v6.6.0 (;The Edge Of The In Between;) built on Dec 1 2013 17:55:00
    Библиотека кодирования : libebml v1.3.0 + libmatroska v1.4.1
    Видео
    Идентификатор : 1
    Формат : AVC
    Формат/Информация : Advanced Video Codec
    Профиль формата : High@L4.1
    Параметр CABAC формата : Да
    Параметр ReFrames формата : 9 кадров
    Идентификатор кодека : V_MPEG4/ISO/AVC
    Продолжительность : 1 ч. 50 м.
    Битрейт : 2856 Кбит/сек
    Ширина : 1024 пикселя
    Высота : 426 пикселей
    Соотношение сторон : 2,40:1
    Режим частоты кадров : Постоянный
    Частота кадров : 23,976 кадра/сек
    Цветовое пространство : YUV
    Субдискретизация насыщенности : 4:2:0
    Битовая глубина : 8 бит
    Тип развёртки : Прогрессивная
    Бит/(Пиксели*Кадры) : 0.273
    Размер потока : 2,13 Гбайт (53%)
    Заголовок : by 0ptimus
    Библиотека кодирования : x264 core 129 r2245 bc13772
    Настройки программы : cabac=1/ref=9/deblock=1:-3:-3/analyse=0x3:0x113/me=umh/subme=11/psy=1/psy_rd=1.00:0.20/mixed_ref=1/me_range=32/chroma_me=1/trellis=2/8x8dct=1/cqm=0/deadzone=21,11/fast_pskip=0/chroma_qp_offset=-3/threads=3/lookahead_threads=1/sliced_threads=0/nr=0/decimate=0/interlaced=0/bluray_compat=0/constrained_intra=0/bframes=12/b_pyramid=2/b_adapt=2/b_bias=0/direct=3/weightb=1/open_gop=0/weightp=2/keyint=240/keyint_min=23/scenecut=40/intra_refresh=0/rc_lookahead=40/rc=2pass/mbtree=0/bitrate=2856/ratetol=1.0/qcomp=0.60/qpmin=0/qpmax=69/qpstep=4/cplxblur=20.0/qblur=0.5/vbv_maxrate=50000/vbv_bufsize=50000/nal_hrd=none/ip_ratio=1.40/pb_ratio=1.30/aq=1:1.00
    Язык : English
    Default : Да
    Forced : Да
    Аудио #1
    Идентификатор : 2
    Формат : AC-3
    Формат/Информация : Audio Coding 3
    Расширение режима : CM (complete main)
    Параметр Endianness формата : Big
    Идентификатор кодека : A_AC3
    Продолжительность : 1 ч. 50 м.
    Вид битрейта : Постоянный
    Битрейт : 384 Кбит/сек
    Каналы : 6 каналов
    Расположение каналов : Front: L C R, Side: L R, LFE
    Частота : 48,0 КГц
    Битовая глубина : 16 бит
    Метод сжатия : С потерями
    Размер потока : 303 Мбайт (7%)
    Заголовок : Дублированный BD AC3 5.1 @ 384 kbps
    Язык : Russian
    Default : Да
    Forced : Да
    Аудио #2
    Идентификатор : 3
    Формат : AC-3
    Формат/Информация : Audio Coding 3
    Расширение режима : CM (complete main)
    Параметр Endianness формата : Big
    Идентификатор кодека : A_AC3
    Продолжительность : 1 ч. 50 м.
    Вид битрейта : Постоянный
    Битрейт : 384 Кбит/сек
    Каналы : 6 каналов
    Расположение каналов : Front: L C R, Side: L R, LFE
    Частота : 48,0 КГц
    Битовая глубина : 16 бит
    Метод сжатия : С потерями
    Размер потока : 303 Мбайт (7%)
    Заголовок : Авторский Дмитрий Пучков Гоблин AC3 5.1 @ 384 kbps
    Язык : Russian
    Default : Нет
    Forced : Нет
    Аудио #3
    Идентификатор : 4
    Формат : AC-3
    Формат/Информация : Audio Coding 3
    Расширение режима : CM (complete main)
    Параметр Endianness формата : Big
    Идентификатор кодека : A_AC3
    Продолжительность : 1 ч. 50 м.
    Вид битрейта : Постоянный
    Битрейт : 384 Кбит/сек
    Каналы : 6 каналов
    Расположение каналов : Front: L C R, Side: L R, LFE
    Частота : 48,0 КГц
    Битовая глубина : 16 бит
    Метод сжатия : С потерями
    Размер потока : 303 Мбайт (7%)
    Заголовок : Авторский Юрий Сербин AC3 5.1 @ 384 kbps
    Язык : Russian
    Default : Нет
    Forced : Нет
    Аудио #4
    Идентификатор : 5
    Формат : AC-3
    Формат/Информация : Audio Coding 3
    Расширение режима : CM (complete main)
    Параметр Endianness формата : Big
    Идентификатор кодека : A_AC3
    Продолжительность : 1 ч. 50 м.
    Вид битрейта : Постоянный
    Битрейт : 384 Кбит/сек
    Каналы : 6 каналов
    Расположение каналов : Front: L C R, Side: L R, LFE
    Частота : 48,0 КГц
    Битовая глубина : 16 бит
    Метод сжатия : С потерями
    Размер потока : 303 Мбайт (7%)
    Заголовок : Авторский Владимир Завгородний AC3 5.1 @ 384 kbps
    Язык : Russian
    Default : Нет
    Forced : Нет
    Аудио #5
    Идентификатор : 6
    Формат : AC-3
    Формат/Информация : Audio Coding 3
    Расширение режима : CM (complete main)
    Параметр Endianness формата : Big
    Идентификатор кодека : A_AC3
    Продолжительность : 1 ч. 50 м.
    Вид битрейта : Постоянный
    Битрейт : 384 Кбит/сек
    Каналы : 6 каналов
    Расположение каналов : Front: L C R, Side: L R, LFE
    Частота : 48,0 КГц
    Битовая глубина : 16 бит
    Метод сжатия : С потерями
    Размер потока : 303 Мбайт (7%)
    Заголовок : Многоголосый Студия AAA-sound по заказу Caravella-DDC AC3 5.1 @ 384 kbps
    Язык : Ukrainian
    Default : Нет
    Forced : Нет
    Аудио #6
    Идентификатор : 7
    Формат : AC-3
    Формат/Информация : Audio Coding 3
    Расширение режима : CM (complete main)
    Параметр Endianness формата : Big
    Идентификатор кодека : A_AC3
    Продолжительность : 1 ч. 50 м.
    Вид битрейта : Постоянный
    Битрейт : 384 Кбит/сек
    Каналы : 6 каналов
    Расположение каналов : Front: L C R, Side: L R, LFE
    Частота : 48,0 КГц
    Битовая глубина : 16 бит
    Метод сжатия : С потерями
    Размер потока : 303 Мбайт (7%)
    Заголовок : AC3 5.1 @ 384 kbps
    Язык : English
    Default : Нет
    Forced : Нет
    Текст #1
    Идентификатор : 8
    Формат : UTF-8
    Идентификатор кодека : S_TEXT/UTF8
    Идентификатор кодека/Информация : UTF-8 Plain Text
    Заголовок : BD
    Язык : Russian
    Default : Нет
    Forced : Нет
    Текст #2
    Идентификатор : 9
    Формат : UTF-8
    Идентификатор кодека : S_TEXT/UTF8
    Идентификатор кодека/Информация : UTF-8 Plain Text
    Заголовок : R5
    Язык : Russian
    Default : Нет
    Forced : Нет
    Текст #3
    Идентификатор : 10
    Формат : UTF-8
    Идентификатор кодека : S_TEXT/UTF8
    Идентификатор кодека/Информация : UTF-8 Plain Text
    Заголовок : Forced
    Язык : English
    Default : Нет
    Forced : Нет
    Текст #4
    Идентификатор : 11
    Формат : UTF-8
    Идентификатор кодека : S_TEXT/UTF8
    Идентификатор кодека/Информация : UTF-8 Plain Text
    Заголовок : v1
    Язык : English
    Default : Нет
    Forced : Нет
    Текст #5
    Идентификатор : 12
    Формат : UTF-8
    Идентификатор кодека : S_TEXT/UTF8
    Идентификатор кодека/Информация : UTF-8 Plain Text
    Заголовок : v2
    Язык : English
    Default : Нет
    Forced : Нет
    Текст #6
    Идентификатор : 13
    Формат : UTF-8
    Идентификатор кодека : S_TEXT/UTF8
    Идентификатор кодека/Информация : UTF-8 Plain Text
    Заголовок : +Songs
    Язык : English
    Default : Нет
    Forced : Нет
    Текст #7
    Идентификатор : 14
    Формат : UTF-8
    Идентификатор кодека : S_TEXT/UTF8
    Идентификатор кодека/Информация : UTF-8 Plain Text
    Заголовок : BD (i)
    Язык : English
    Default : Нет
    Forced : Нет
    Текст #8
    Идентификатор : 15
    Формат : UTF-8
    Идентификатор кодека : S_TEXT/UTF8
    Идентификатор кодека/Информация : UTF-8 Plain Text
    Заголовок : SDH
    Язык : English
    Default : Нет
    Forced : Нет
    Текст #9
    Идентификатор : 16
    Формат : UTF-8
    Идентификатор кодека : S_TEXT/UTF8
    Идентификатор кодека/Информация : UTF-8 Plain Text
    Заголовок : SDH color
    Язык : English
    Default : Нет
    Forced : Нет
    Меню
    00:00:00.000 : en:00:00:00.000
    00:06:53.038 : en:00:06:53.038
    00:14:26.115 : en:00:14:26.115
    00:20:37.987 : en:00:20:37.987
    00:27:05.916 : en:00:27:05.916
    00:33:35.722 : en:00:33:35.722
    00:38:01.112 : en:00:38:01.112
    00:45:08.205 : en:00:45:08.205
    00:52:11.295 : en:00:52:11.295
    00:59:04.207 : en:00:59:04.207
    01:09:26.496 : en:01:09:26.496
    01:17:18.133 : en:01:17:18.133
    01:20:54.641 : en:01:20:54.641
    01:26:29.393 : en:01:26:29.393
    01:35:36.814 : en:01:35:36.814
    01:41:13.192 : en:01:41:13.192
    Скриншоты для ознакомления



    Релиз подготовил:
    Размер скачиваемого торрента: 3.98 GB (4277630013 Bytes)

    Семь психопатов/Seven Psychopaths (2012) BDRip-AVC от 0ptimus | D, А скачать через торрент бесплатно
    загрузка...
    Рейтинг →
     (голосов: 1, оценка 3/5, голосовать можно 1 раз )

    Другие торренты по теме:

  • Семь психопатов / Seven Psychopaths (2012) DVDRip | Чистый звук
  • Семь психопатов / Seven Psychopaths (2012) BDRemux 1080p скачать через торрент бесплатно
  • Семь психопатов / Seven Psychopaths (2012) BDRip 720p


    • Комментарии (0):

      Информация

      Информация

        Посетители, находящиеся в группе Гости, не могут оставлять комментарии в данной новости.

        ↓ Меню



        ↓ Опрос

        А Вы добавили сайт в закладки?
        Да
        Не


        Top 10 за месяц (Фильмы)