.
Авторизация | Регистрация
» » Этим утром в Нью-Йорке / The Angriest Man in Brooklyn (2014) DVDRip от New-Team | D | лицензия скачать через торрент бесплатно




    Этим утром в Нью-Йорке / The Angriest Man in Brooklyn (2014) DVDRip от New-Team | D | лицензия скачать через торрент бесплатно

    Опубликовал: Админ | Дата: 27-02-2015, 11:10 | Просмотров: 158

    Измени жизнь за 90 минут

    Снималось в: США/AMIB Productions, Cargo Entertainment, Films de Force Majeure, Landscape Entertainment, MICA Entertainment, Prominent Media Group, Vedette Finance
    Категория жанра: драма, комедия
    Создали в: 2014
    Время просмотра: 01:29:01
    Перевод текста:Профессиональный (дублированный)
    Субтитры подготовлены: нет
    Оригинальная аудиодорожка: нет
    Главный режиссер: Фил Олден Робинсон/Phil Alden Robinson
    Актеры: Робин Уильямс, Мила Кунис, Питер Динклэйдж, Мелисса Лео, Хамиш Линклэйтер, Саттон Фостер, Джеймс Эрл Джонс, Ричард Кайнд, Дэниэл Рэймонт, Крис Гезерд...
    Роли дублировали: Леонид Белозорович, Рамиля Искандер, Илья Исаев, Елена Войновская, Дмитрий Поляновский...
    Сюжет: Женщина-врач по ошибке сообщает одному вредному пациенту, что ему осталось жить полтора часа. Стремясь исправить свою адскую оплошность, она устремляется на поиски человека, который решил, пока не поздно, исправить все ошибки, совершенные им в жизни.

    Качество фильма: DVDRip /DVD9 R5 - лицензионный диск от Lizard Cinema Trade
    Тип видео: AVI
    Информация о видео: 656x352, XviD, 1033 kbps/25,000 fps/1.85:1/bit/pix=0.179
    Информация о звуке: Russian: 48 kHz, MP3, 2/0 (L,R) ch, 128.00 kbps constant
    Пояснения: Давно в сети есть блюреи, ремуксы и бдрипы этого фильма с двухканальным Line звуком, однако выпущенный Lizard Cinema Trade диск DVD9 R5 с лицензионным звуком, на девять! минут длиннее, чем все эти бдрипы. Может быть это какая-то режиссерская или расширенная версия фильма. Поэтому принял решение поставить DVDRip. Длина BDRemux: 01:23:43, длина исходника этой раздачи с учетом растяжки до 23.976 fps: 01:32:49. Не анализировал, что включают в себя эти девять минут разницы, но подбирать звук под BD как-то не хочется.
    Раздача от:
    MediaInfo

    Общее
    Полное имя : Etim.utrom.v.Nyu-Yorke.2014.D.DVDRip.745MB_New-Team_by_keeper.avi
    Формат : AVI
    Формат/Информация : Audio Video Interleave
    Размер файла : 745 Мбайт
    Продолжительность : 1 ч. 29 м.
    Общий поток : 1171 Кбит/сек
    Программа кодирования : VirtualDubModRus 1.5.10.2 (build 2542/release)
    Библиотека кодирования : VirtualDubMod build 2542/release
    Видео
    Идентификатор : 0
    Формат : MPEG-4 Visual
    Профиль формата : Advanced Simple@L5
    Параметр BVOP формата : 1
    Параметр QPel формата : Нет
    Параметр GMC формата : Без точки перехода
    Параметр матрицы формата : Выборочная
    Идентификатор кодека : XVID
    Идентификатор кодека/Подсказка : XviD
    Продолжительность : 1 ч. 29 м.
    Битрейт : 1033 Кбит/сек
    Ширина : 656 пикселей
    Высота : 352 пикселя
    Соотношение сторон : 1,85:1
    Частота кадров : 25,000 кадров/сек
    Цветовое пространство : YUV
    Субдискретизация насыщенности : 4:2:0
    Битовая глубина : 8 бит
    Тип развёртки : Прогрессивная
    Метод сжатия : С потерями
    Бит/(Пиксели*Кадры) : 0.179
    Размер потока : 658 Мбайт (88%)
    Библиотека кодирования : XviD 1.2.1 (UTC 2008-12-04)
    Аудио
    Идентификатор : 1
    Формат : MPEG Audio
    Версия формата : Version 1
    Профиль формата : Layer 3
    Режим : Joint stereo
    Идентификатор кодека : 55
    Идентификатор кодека/Подсказка : MP3
    Продолжительность : 1 ч. 29 м.
    Вид битрейта : Постоянный
    Битрейт : 128 Кбит/сек
    Каналы : 2 канала
    Частота : 48,0 КГц
    Метод сжатия : С потерями
    Размер потока : 81,5 Мбайт (11%)
    Выравнивание : Соединение по промежуткам
    Продолжительность промежутка : 40 мс. (1,00 видеокадр)
    Время предзагрузки промежутка : 504 мс.

    Скриншоты для ознакомления:



    Размер скачиваемого торрента: 745.27 MB (781471744 Bytes)

    Этим утром в Нью-Йорке/The Angriest Man in Brooklyn (2014) DVDRip от New-Team | D | лицензия скачать через торрент бесплатно
    загрузка...
    Рейтинг →
     (голосов: 1, оценка 3/5, голосовать можно 1 раз )

    Другие торренты по теме:

  • Этим утром в Нью-Йорке (2014) HDRip расширенная версия торрент скачать бесплатно
  • Этим утром в Нью-Йорке / The Angriest Man in Brooklyn (2014) BDRip 720p | L2 скачать через торрент бесплатно
  • Этим утром в Нью-Йорке / The Angriest Man in Brooklyn (2014) DVD9 от New-Team | D | Лицензия скачать через торрент бесплатно
  • Этим утром в Нью-Йорке / The Angriest Man in Brooklyn (2014) DVDRip-AVC от New-Team | D | Лицензия скачать через торрент бесплатно
  • Этим утром в Нью-Йорке / The Angriest Man in Brooklyn (2014) DVDRip от New-Team | D | лицензия скачать через торрент бесплатно
  • Этим утром в Нью-Йорке / The Angriest Man in Brooklyn (2014) DVD5 от New-Team | D | Лицензия торрент скачать бесплатно
  • Этим утром в Нью-Йорке / The Angriest Man in Brooklyn (2014) BDRip 1080p от New-Team | D | лицензия торрент скачать бесплатно
  • Этим утром в Нью-Йорке / The Angriest Man in Brooklyn (2014) BDRip 720p от New-Team | D | лицензия торрент скачать бесплатно


    • Комментарии (0):

      Информация

      Информация

        Посетители, находящиеся в группе Гости, не могут оставлять комментарии в данной новости.

        ↓ Меню



        ↓ Опрос

        А Вы добавили сайт в закладки?
        Да
        Не


        Top 10 за неделю (Фильмы)