.
Авторизация | Регистрация
Хочешь лучшие торренты? Добавь свой email!
Добавить
» » Этим утром в Нью-Йорке / The Angriest Man in Brooklyn (2014) BDRip 1080p от New-Team | D | лицензия торрент скачать бесплатно




    Этим утром в Нью-Йорке / The Angriest Man in Brooklyn (2014) BDRip 1080p от New-Team | D | лицензия торрент скачать бесплатно

    Опубликовал: Админ | Дата: 27-02-2015, 11:10 | Просмотров: 153

    Измени жизнь за 90 минут

    Снималось в: США/AMIB Productions, Cargo Entertainment, Films de Force Majeure, Landscape Entertainment, MICA Entertainment, Prominent Media Group, Vedette Finance
    Категория жанра: драма, комедия
    Создали в: 2014
    Время просмотра: 01:32:48
    Перевод текста:Профессиональный (дублированный)
    Субтитры подготовлены: нет
    Оригинальная аудиодорожка: нет
    Главный режиссер: Фил Олден Робинсон/Phil Alden Robinson
    Актеры: Робин Уильямс, Мила Кунис, Питер Динклэйдж, Мелисса Лео, Хамиш Линклэйтер, Саттон Фостер, Джеймс Эрл Джонс, Ричард Кайнд, Дэниэл Рэймонт, Крис Гезерд...
    Роли дублировали: Леонид Белозорович, Рамиля Искандер, Илья Исаев, Елена Войновская, Дмитрий Поляновский...
    Сюжет: Женщина-врач по ошибке сообщает одному вредному пациенту, что ему осталось жить полтора часа. Стремясь исправить свою адскую оплошность, она устремляется на поиски человека, который решил, пока не поздно, исправить все ошибки, совершенные им в жизни.

    Качество фильма: Качество: BDRip 1080p/DVD9 R5 - лицензионный диск от Lizard Cinema Trade + Etim.utrom.v.Nyu.Yorke.2014.D.BDRip.1080p.mkv
    Тип видео: MKV
    Информация о видео: 1920x1080, MPEG-4 AVC, 9715 kbps/23,976 fps/16:9/bit/pix=0.195
    Информация о звуке 1: Russian: 48 kHz, DTS, 3/2 (L,C,R,l,r) + LFE ch, 768.00 kbps constant
    Информация о звуке 2: English: 48 kHz, AC3, 3/2 (L,C,R,l,r) + LFE ch, 640.00 kbps constant
    Дополнительно: Фильм разбит на главы, как на оригинальном Blu-ray диске.
    Раздача от:
    MediaInfo

    Общее
    Полное имя : Etim.utrom.v.Nyu.Yorke.2014.D.BDRip.1080p.mkv
    Формат : Matroska
    Версия формата : Version 4/Version 2
    Размер файла : 7,35 Гбайт
    Продолжительность : 1 ч. 32 м.
    Общий поток : 11,3 Мбит/сек
    Название фильма : Dual by alesimba_20
    Дата кодирования : UTC 2014-10-29 19:15:13
    Программа кодирования : mkvmerge v7.2.0 (;On Every Street;) 64bit built on Sep 13 2014 15:52:10
    Библиотека кодирования : libebml v1.3.0 + libmatroska v1.4.1
    DURATION : 01:32:49.174000000
    NUMBER_OF_FRAMES : 522110
    NUMBER_OF_BYTES : 525242660
    _STATISTICS_WRITING_APP : mkvmerge v7.2.0 (;On Every Street;) 64bit built on Sep 13 2014 15:52:10
    _STATISTICS_WRITING_DATE_UTC : 2014-10-29 19:15:13
    _STATISTICS_TAGS : BPS DURATION NUMBER_OF_FRAMES NUMBER_OF_BYTES
    Видео
    Идентификатор : 1
    Формат : AVC
    Формат/Информация : Advanced Video Codec
    Профиль формата : High@L4.1
    Параметр CABAC формата : Да
    Параметр ReFrames формата : 2 кадра
    Идентификатор кодека : V_MPEG4/ISO/AVC
    Продолжительность : 1 ч. 32 м.
    Битрейт : 9715 Кбит/сек
    Ширина : 1920 пикселей
    Высота : 1080 пикселей
    Соотношение сторон : 16:9
    Режим частоты кадров : Постоянный
    Частота кадров : 23,976 кадра/сек
    Цветовое пространство : YUV
    Субдискретизация насыщенности : 4:2:0
    Битовая глубина : 8 бит
    Тип развёртки : Прогрессивная
    Бит/(Пиксели*Кадры) : 0.195
    Размер потока : 6,30 Гбайт (86%)
    Библиотека кодирования : x264 core
    Default : Да
    Forced : Нет
    Основные цвета : BT.709
    Характеристики трансфера : BT.709
    Коэффициенты матрицы : BT.709
    Аудио #1
    Идентификатор : 2
    Формат : DTS
    Формат/Информация : Digital Theater Systems
    Режим : 16
    Параметр Endianness формата : Big
    Идентификатор кодека : A_DTS
    Продолжительность : 1 ч. 32 м.
    Вид битрейта : Постоянный
    Битрейт : 755 Кбит/сек
    Каналы : 6 каналов
    Расположение каналов : Front: L C R, Side: L R, LFE
    Частота : 48,0 КГц
    Битовая глубина : 24 бит
    Метод сжатия : С потерями
    Размер потока : 501 Мбайт (7%)
    Язык : Russian
    Default : Да
    Forced : Нет
    Аудио #2
    Идентификатор : 3
    Формат : AC-3
    Формат/Информация : Audio Coding 3
    Расширение режима : CM (complete main)
    Параметр Endianness формата : Big
    Идентификатор кодека : A_AC3
    Продолжительность : 1 ч. 32 м.
    Вид битрейта : Постоянный
    Битрейт : 640 Кбит/сек
    Каналы : 6 каналов
    Расположение каналов : Front: L C R, Side: L R, LFE
    Частота : 48,0 КГц
    Битовая глубина : 16 бит
    Метод сжатия : С потерями
    Размер потока : 425 Мбайт (6%)
    Язык : English
    Default : Нет
    Forced : Нет
    Меню
    00:00:00.000 : en:(01)00:00:00:000
    00:09:00.331 : en:(02)00:09:00:331
    00:21:51.852 : en:(03)00:21:51:852
    00:28:34.546 : en:(04)00:28:34:546
    00:39:03.215 : en:(05)00:39:03:215
    00:47:26.677 : en:(06)00:47:26:677
    01:00:03.433 : en:(07)01:00:03:433
    01:12:27.176 : en:(08)01:12:27:176
    01:21:03.692 : en:(09)01:21:03:692
    01:27:51.349 : en:(10)01:27:51:349
    01:32:48.980 : en:(11)01:32:48:980

    Скриншоты для ознакомления:



    Размер скачиваемого торрента: 7.35 GB (7891047551 Bytes)

    Этим утром в Нью-Йорке/The Angriest Man in Brooklyn (2014) BDRip 1080p от New-Team | D | лицензия торрент скачать бесплатно
    загрузка...
    Рейтинг →
     (голосов: 1, оценка 4/5, голосовать можно 1 раз )

    Другие торренты по теме:

  • Этим утром в Нью-Йорке (2014) HDRip расширенная версия
  • Этим утром в Нью-Йорке / The Angriest Man in Brooklyn (2014) BDRip 720p | L2 скачать через торрент бесплатно
  • Этим утром в Нью-Йорке / The Angriest Man in Brooklyn (2014) DVD9 от New-Team | D | Лицензия скачать через торрент бесплатно
  • Этим утром в Нью-Йорке / The Angriest Man in Brooklyn (2014) DVDRip-AVC от New-Team | D | Лицензия скачать через торрент бесплатно
  • Этим утром в Нью-Йорке / The Angriest Man in Brooklyn (2014) DVDRip от New-Team | D | лицензия скачать через торрент бесплатно
  • Этим утром в Нью-Йорке / The Angriest Man in Brooklyn (2014) DVDRip от New-Team | D | лицензия скачать через торрент бесплатно
  • Этим утром в Нью-Йорке / The Angriest Man in Brooklyn (2014) DVD5 от New-Team | D | Лицензия
  • Этим утром в Нью-Йорке / The Angriest Man in Brooklyn (2014) BDRip 720p от New-Team | D | лицензия


    • Комментарии (0):

      Информация

      Информация

        Посетители, находящиеся в группе Гости, не могут оставлять комментарии в данной новости.

        ↓ Меню



        ↓ Опрос

        А Вы добавили сайт в закладки?
        Да
        Не


        Top 10 за месяц (Фильмы)