.
Авторизация | Регистрация
» » Планета обезьян: Революция / Dawn of the Planet of the Apes (2014) WEB-DL 1080p | Чистый звук торрент скачать бесплатно




    Планета обезьян: Революция / Dawn of the Planet of the Apes (2014) WEB-DL 1080p | Чистый звук торрент скачать бесплатно

    Опубликовал: Админ | Дата: 27-02-2015, 11:10 | Просмотров: 193



    Детально о кино
    Русское название: Планета обезьян: Революция
    Русское название в мировом прокате: Dawn of the Planet of the Apes
    Создали в: 2014
    Категория жанра:фантастика, боевик, драма
    Главный режиссер: Мэтт Ривз
    Актеры: Энди Серкис, Джейсон Кларк, Гари Олдман, Кери Рассел, Тоби Кеббелл, Коди, Смит-МакФи, Кирк Асеведо, Ник Тёрстон, Терри Нотари, Карин Коновал

    Сюжет фильма:Численность генетически модифицированных обезьян, возглавляемых Цезарем, продолжает увеличиваться, но обезьянам угрожают люди, которым удалось выжить во время ужасной эпидемии десятилетней давности. Поначалу между соперниками устанавливается хрупкий мир, но он оказывается недолговечным. Обезьяны и люди находятся на грани войны, в ходе которой станет понятно, кто из них в будущем станет безраздельно править планетой.



    Снималось в: США/Chernin Entertainment
    Время просмотра: 02:10:36
    Перевод текста:Профессиональный(полное дублирование)-Чистый звук

    Файл
    Качество фильма:WEB-DL 1080p
    Тип видео: MKV
    Информация о видео: MPEG4/AVC, 1916х1034 (1.85:1), 4669 Кбит/сек, 23.976 кадра/сек
    Информация о звуке 1: AC3, 2 канала, 384 Кбит/сек |Русский
    Информация о звуке 2: AC3, 6 каналов, 384 Кбит/сек |Английский
    Субтитры: Русские (форс. |BuR, на речь обезьян), английские (Forced, Full)
    Навигация по главам: Есть

    MediaInfo:
    Общее
    Уникальный идентификатор : 245567978697223323351436964735008100329 (0xB8BEAC1F7E820A22B8C799484E83CFE9)
    Полное имя : Dawn Of The Planet of The Apes. (2014) WEB-DL 1080p.mkv
    Формат : Matroska
    Версия формата : Version 2
    Размер файла : 5,06 Гбайт
    Продолжительность : 2 ч. 10 м.
    Общий поток : 5547 Кбит/сек
    Название фильма : Dawn Of The Planet of The Apes.2014
    Дата кодирования : UTC 2014-10-29 16:45:33
    Программа кодирования : mkvmerge v5.8.0 (;No Sleep/Pillow;) built on Sep 2 2012 15:37:04
    Библиотека кодирования : libebml v1.2.3 + libmatroska v1.3.0

    Видео
    Идентификатор : 1
    Формат : AVC
    Формат/Информация : Advanced Video Codec
    Профиль формата : High@L4.0
    Параметр CABAC формата : Да
    Параметр ReFrames формата : 4 кадра
    Идентификатор кодека : V_MPEG4/ISO/AVC
    Продолжительность : 2 ч. 10 м.
    Битрейт : 4669 Кбит/сек
    Ширина : 1916 пикселей
    Высота : 1034 пикселя
    Соотношение сторон : 1,85:1
    Режим частоты кадров : Постоянный
    Частота кадров : 23,976 кадра/сек
    Цветовое пространство : YUV
    Субдискретизация насыщенности : 4:2:0
    Битовая глубина : 8 бит
    Тип развёртки : Прогрессивная
    Бит/(Пиксели*Кадры) : 0.098
    Размер потока : 4,26 Гбайт (84%)
    Заголовок : RARBG
    Язык : English
    Default : Да
    Forced : Нет
    Основные цвета : BT.709
    Характеристики трансфера : BT.709
    Коэффициенты матрицы : BT.709

    Аудио #1
    Идентификатор : 2
    Формат : AC-3
    Формат/Информация : Audio Coding 3
    Расширение режима : CM (complete main)
    Параметр Endianness формата : Big
    Идентификатор кодека : A_AC3
    Продолжительность : 2 ч. 10 м.
    Вид битрейта : Постоянный
    Битрейт : 384 Кбит/сек
    Каналы : 2 канала
    Расположение каналов : Front: L R
    Частота : 48,0 КГц
    Битовая глубина : 16 бит
    Метод сжатия : С потерями
    Размер потока : 359 Мбайт (7%)
    Заголовок : D | Line
    Язык : Russian
    Default : Да
    Forced : Нет

    Аудио #2
    Идентификатор : 3
    Формат : AC-3
    Формат/Информация : Audio Coding 3
    Расширение режима : CM (complete main)
    Параметр Endianness формата : Big
    Идентификатор кодека : A_AC3
    Продолжительность : 2 ч. 10 м.
    Вид битрейта : Постоянный
    Битрейт : 384 Кбит/сек
    Каналы : 6 каналов
    Расположение каналов : Front: L C R, Side: L R, LFE
    Частота : 48,0 КГц
    Битовая глубина : 16 бит
    Метод сжатия : С потерями
    Размер потока : 359 Мбайт (7%)
    Заголовок : Original
    Язык : English
    Default : Нет
    Forced : Нет

    Текст #1
    Идентификатор : 4
    Формат : UTF-8
    Идентификатор кодека : S_TEXT/UTF8
    Идентификатор кодека/Информация : UTF-8 Plain Text
    Заголовок : Forced | BuR
    Язык : Russian
    Default : Да
    Forced : Да

    Текст #2
    Идентификатор : 5
    Формат : UTF-8
    Идентификатор кодека : S_TEXT/UTF8
    Идентификатор кодека/Информация : UTF-8 Plain Text
    Заголовок : Forced
    Язык : English
    Default : Нет
    Forced : Нет

    Текст #3
    Идентификатор : 6
    Формат : UTF-8
    Идентификатор кодека : S_TEXT/UTF8
    Идентификатор кодека/Информация : UTF-8 Plain Text
    Заголовок : Full
    Язык : English
    Default : Нет
    Forced : Нет

    Меню
    00:00:00.000 : en:1
    00:03:19.000 : en:2
    00:07:32.000 : en:3
    00:12:33.000 : en:4
    00:16:20.000 : en:5
    00:18:43.000 : en:6
    00:21:49.000 : en:7
    00:25:23.000 : en:8
    00:29:42.000 : en:9
    00:31:46.000 : en:10
    00:36:39.000 : en:11
    00:39:03.000 : en:12
    00:40:52.000 : en:13
    00:44:07.000 : en:14
    00:48:06.000 : en:15
    00:50:26.000 : en:16
    00:53:42.000 : en:17
    00:57:19.000 : en:18
    01:01:12.000 : en:19
    01:02:29.000 : en:20
    01:04:18.000 : en:21
    01:06:15.000 : en:22
    01:09:25.000 : en:23
    01:13:50.000 : en:24
    01:17:15.000 : en:25
    01:20:46.000 : en:26
    01:23:21.000 : en:27
    01:26:01.000 : en:28
    01:28:12.000 : en:29
    01:33:16.000 : en:30
    01:35:45.000 : en:31
    01:38:30.000 : en:32
    01:40:34.000 : en:33
    01:43:59.000 : en:34
    01:45:57.000 : en:35
    01:47:46.000 : en:36
    01:52:05.000 : en:37
    01:56:18.000 : en:38
    02:00:21.000 : en:39
    02:01:25.000 : en:40



    Релиз подготовил:
    Размер скачиваемого торрента: 5.06 GB (5434116462 Bytes)

    Планета обезьян: Революция/Dawn of the Planet of the Apes (2014) WEB-DL 1080p | Чистый звук торрент скачать бесплатно
    загрузка...
    Рейтинг →
     (голосов: 1, оценка 5/5, голосовать можно 1 раз )

    Другие торренты по теме:

  • Планета обезьян: Коллекция / Planet of the Apes: Collection (1968-1973) BDRip от CinemaClub торрент скачать бесплатно
  • Восстание планеты обезьян / Rise of the Planet of the Apes (2011) BDRip 1080p от Youtracker торрент скачать бесплатно
  • OST - Планета Обезьян / Planet Of The Apes (2012) MP3 торрент скачать бесплатно
  • Завоевание планеты обезьян / Conquest of the Planet of the Apes (1972) BDRip от HQCLUB | Theatrical Cut торрент скачать бесплатно
  • Рассвет планеты обезьян (2014) скачать через торрент бесплатно
  • Планета обезьян / Planet of the Apes (2001) BDRip 1080p от denis 100 | D,P,A торрент скачать бесплатно
  • Восстание планеты обезьян / Rise of the Planet of the Apes (2011) BDRip-AVC от MediaClub | D, P, A скачать через торрент бесплатно
  • OST - Планета обезьян: Революция / Dawn of the Planet of the Apes (2014) MP3 от AGR - Generalfilm скачать через торрент бесплатно


    • Комментарии (0):

      Информация

      Информация

        Посетители, находящиеся в группе Гости, не могут оставлять комментарии в данной новости.

        ↓ Меню



        ↓ Опрос

        А Вы добавили сайт в закладки?
        Да
        Не


        Top 10 за неделю (Фильмы)