.
Авторизация | Регистрация
» » Привязанные к дому / Housebound (2014) WEB-DL 720p от Сinemania | L1 торрент скачать бесплатно




    Привязанные к дому / Housebound (2014) WEB-DL 720p от Сinemania | L1 торрент скачать бесплатно

    Опубликовал: Админ | Дата: 27-02-2015, 11:10 | Просмотров: 151


    Детально о кино
    Русское название:Привязанные к дому
    Русское название в мировом прокате:Housebound
    Создали в:2014
    Категория жанра:Ужасы, триллер, комедия
    Главный режиссер:Джерард Джонстоун
    Актеры:Моргана О’ Рейли, Рима Те Вьята, Глен-Пол Вару, Росс Харпер, Камерон Родс, Райан Лэмпп, Мик Иннес, Брюс Хопкинс, Уоллес Чепмен, Миллен Бейрд
    Сюжет фильма:
    Кайли Бакнелл вынуждена вернуться в фамильный особняк после того, как суд приговорил ее к заключению под домашний арест. Ее наказание за неудачную попытку ограбить банкомат осложняется еще и тем, что Кайли вынуждена жить со своей безумной мамой Мириам, которая убеждена, что особняк кишит приведениями…

    Снималось в:Новая Зеландия/Semi-Professional
    Время просмотра:01:46:46
    Перевод текста:Любительское (одноголосое)А. Агапов aka datynet
    Файл
    Тип видео:MKV
    Качество фильма:WEB-DL 720p
    Информация о видео:MPEG-4 AVC, 3444 Кбит/с, 960x528@1280x528
    Информация о звуке:Русский (AC3, 2 ch, 256 Кбит/с), английский (AC3, 6 ch, 384 Кбит/с)
    Субтитры:Английские
    Семпл
    Media Info:

    Общее
    Уникальный идентификатор : 235199709012969421675816339037272850810 (0xB0F1D0F5C149E90DAD9C1EAB7FBAC17A)
    Полное имя : F:Раздача HDHousebound.2014.WEB.DL.720p.CINEMANIA.mkv
    Формат : Matroska
    Версия формата : Version 4/Version 2
    Размер файла : 3,11 Гбайт
    Продолжительность : 1 ч. 46 м.
    Общий поток : 4167 Кбит/сек
    Название фильма : Release Group CINEMANIA
    Дата кодирования : UTC 2014-10-28 18:14:14
    Программа кодирования : mkvmerge v7.3.0 (;Nouages;) 64bit built on Oct 22 2014 18:53:34
    Библиотека кодирования : libebml v1.3.0 + libmatroska v1.4.1
    Видео
    Идентификатор : 1
    Формат : AVC
    Формат/Информация : Advanced Video Codec
    Профиль формата : Main@L3.1
    Параметр CABAC формата : Нет
    Параметр ReFrames формата : 2 кадра
    Идентификатор кодека : V_MPEG4/ISO/AVC
    Продолжительность : 1 ч. 46 м.
    Битрейт : 3444 Кбит/сек
    Ширина : 960 пикселей
    Высота : 528 пикселей
    Соотношение сторон : 2,40:1
    Режим частоты кадров : Постоянный
    Частота кадров : 25,000 кадров/сек
    Цветовое пространство : YUV
    Субдискретизация насыщенности : 4:2:0
    Битовая глубина : 8 бит
    Тип развёртки : Прогрессивная
    Бит/(Пиксели*Кадры) : 0.272
    Размер потока : 2,57 Гбайт (83%)
    Заголовок : Release Group CINEMANIA
    Язык : English
    Default : Да
    Forced : Нет
    Основные цвета : BT.709
    Характеристики трансфера : BT.709
    Коэффициенты матрицы : BT.709
    Аудио #1
    Идентификатор : 2
    Формат : AC-3
    Формат/Информация : Audio Coding 3
    Расширение режима : CM (complete main)
    Параметр Endianness формата : Big
    Идентификатор кодека : A_AC3
    Продолжительность : 1 ч. 46 м.
    Вид битрейта : Постоянный
    Битрейт : 256 Кбит/сек
    Каналы : 2 канала
    Расположение каналов : Front: L R
    Частота : 48,0 КГц
    Битовая глубина : 16 бит
    Метод сжатия : С потерями
    Размер потока : 195 Мбайт (6%)
    Заголовок : Антон Агапов
    Язык : Russian
    Default : Да
    Forced : Да
    Аудио #2
    Идентификатор : 3
    Формат : AC-3
    Формат/Информация : Audio Coding 3
    Расширение режима : CM (complete main)
    Параметр Endianness формата : Big
    Идентификатор кодека : A_AC3
    Продолжительность : 1 ч. 46 м.
    Вид битрейта : Постоянный
    Битрейт : 384 Кбит/сек
    Каналы : 6 каналов
    Расположение каналов : Front: L C R, Side: L R, LFE
    Частота : 48,0 КГц
    Битовая глубина : 16 бит
    Метод сжатия : С потерями
    Размер потока : 293 Мбайт (9%)
    Язык : English
    Default : Нет
    Forced : Нет
    Текст #1
    Идентификатор : 4
    Формат : UTF-8
    Идентификатор кодека : S_TEXT/UTF8
    Идентификатор кодека/Информация : UTF-8 Plain Text
    Язык : Russian
    Default : Да
    Forced : Да
    Текст #2
    Идентификатор : 5
    Формат : UTF-8
    Идентификатор кодека : S_TEXT/UTF8
    Идентификатор кодека/Информация : UTF-8 Plain Text
    Язык : English
    Default : Нет
    Forced : Нет
    Меню
    00:00:00.000 : en:1
    00:06:10.000 : en:2
    00:12:31.000 : en:3
    00:17:13.000 : en:4
    00:24:42.000 : en:5
    00:31:00.000 : en:6
    00:40:50.000 : en:7
    00:45:40.000 : en:8
    00:51:43.000 : en:9
    00:59:45.000 : en:10
    01:08:53.000 : en:11
    01:15:19.000 : en:12
    01:21:05.000 : en:13
    01:25:38.000 : en:14
    01:31:46.000 : en:15
    01:43:35.000 : en:16
    Скриншоты для ознакомления

    Релиз подготовил:
    Залил: grab777
    Размер скачиваемого торрента: 3.11 GB (3337030347 Bytes)

    Привязанные к дому/Housebound (2014) WEB-DL 720p от Сinemania | L1 торрент скачать бесплатно
    загрузка...
    Рейтинг →
     (голосов: 1, оценка 5/5, голосовать можно 1 раз )

    Другие торренты по теме:

  • Привязанные к дому / Housebound (2014) HDRip | L1 скачать через торрент бесплатно
  • Привязанные к дому / Housebound (2014) HDRip | L1 скачать через торрент бесплатно
  • Привязанные к дому / Housebound (2014) WEB-DLRip-AVC от New-Team | L1 торрент скачать бесплатно
  • Привязанные к дому / Housebound торрент скачать бесплатно
  • Привязанные к дому / Housebound (2014) BDRip 720p | A скачать торрент бесплатно


    • Комментарии (0):

      Информация

      Информация

        Посетители, находящиеся в группе Гости, не могут оставлять комментарии в данной новости.

        ↓ Меню



        ↓ Опрос

        А Вы добавили сайт в закладки?
        Да
        Не


        Top 10 за неделю (Фильмы)