.
Авторизация | Регистрация
Хочешь лучшие торренты? Добавь свой email!
Добавить
» » Город грехов / Sin City Recut (2005) DVD9 | Режиссерская версия торрент скачать бесплатно




    Город грехов / Sin City Recut (2005) DVD9 | Режиссерская версия торрент скачать бесплатно

    Опубликовал: Админ | Дата: 27-02-2015, 11:10 | Просмотров: 219


    Детально о кино
    Русское название:Город грехов
    Русское название в мировом прокате:Sin City
    Создали в:2005
    Категория жанра:боевик, триллер, криминал, детектив
    Главный режиссер:Фрэнк Миллер, Роберт Родригес, Квентин Тарантино
    Актеры:Брюс Уиллис, Микки Рурк, Клайв Оуэн, Розарио Доусон, Джессика Альба, Бенисио Дель Торо, Джейми Кинг, Ник Стал, Девон Аоки, Алексис Бледел
    Сюжет фильма:
    Город грехов — это адская бездна преступлений. Один из его жителей пытается найти убийцу своей подруги. Другой, фотограф, случайно становится свидетелем убийства полицейского и старается скрыть преступление. Спуститесь по глухому переулку города, и вы найдете кое-что еще. В Городе грехов полиция коррумпирована и улицы смертельно опасны…

    Снималось в:США
    Киностудия:Dimension Films, Troublemaker Studios
    Время просмотра:147 мин./02:27
    Перевод текста:профессиональный (многоголосый, закадровый)
    Бонусы:Урок по киноискусству, Зеленые экраны, Длинная сцена, Концерт Город грехов, Школа кулинаров
    Файл
    Кодек для видео:MPEG2
    Качество фильма:DVD9
    Информация о видео:NTSC 16:9 (720x480@853x480) VBR 6696 Kbps, 29.970 fps
    Информация о звуке:Dolby AC3, 6 ch, 48.0 KHz, 448 Kbps
    Субтитры:русские, английские, испанские
    MediaInfo
    General
    Complete name : D:SIN_CITY_RECUTVIDEO_TSVTS_01_1.VOB
    Format : MPEG-PS
    File size : 1 024 MiB
    Duration : 18mn 28s
    Overall bit rate mode : Variable
    Overall bit rate : 7 746 Kbps
    Video
    ID : 224 (0xE0)
    Format : MPEG Video
    Format version : Version 2
    Format profile : Main@Main
    Format settings, BVOP : Yes
    Format settings, Matrix : Custom
    Format settings, GOP : Variable
    Duration : 18mn 28s
    Bit rate mode : Variable
    Bit rate : 6 696 Kbps
    Width : 720 pixels
    Height : 480 pixels
    Display aspect ratio : 16:9
    Frame rate : 29.970 fps
    Standard : NTSC
    Color space : YUV
    Chroma subsampling : 4:2:0
    Bit depth : 8 bits
    Compression mode : Lossy
    Bits/(Pixel*Frame) : 0.647
    Stream size : 885 MiB (86%)
    Color primaries : BT.470 System M
    Transfer characteristics : BT.470 System M
    Matrix coefficients : BT.601
    Audio #1
    ID : 189 (0xBD)-128 (0x80)
    Format : AC-3
    Format/Info : Audio Coding 3
    Mode extension : CM (complete main)
    Format settings, Endianness : Big
    Muxing mode : DVD-Video
    Duration : 18mn 28s
    Bit rate mode : Constant
    Bit rate : 448 Kbps
    Channel(s) : 6 channels
    Channel positions : Front: L C R, Side: L R, LFE
    Sampling rate : 48.0 KHz
    Bit depth : 16 bits
    Compression mode : Lossy
    Stream size : 59.2 MiB (6%)
    Audio #2
    ID : 189 (0xBD)-129 (0x81)
    Format : AC-3
    Format/Info : Audio Coding 3
    Mode extension : CM (complete main)
    Format settings, Endianness : Big
    Muxing mode : DVD-Video
    Duration : 18mn 28s
    Bit rate mode : Constant
    Bit rate : 448 Kbps
    Channel(s) : 6 channels
    Channel positions : Front: L C R, Side: L R, LFE
    Sampling rate : 48.0 KHz
    Bit depth : 16 bits
    Compression mode : Lossy
    Stream size : 59.2 MiB (6%)
    Text #1
    ID : 189 (0xBD)-32 (0x20)
    Format : RLE
    Format/Info : Run-length encoding
    Muxing mode : DVD-Video
    Duration : 18mn 27s
    Delay relative to video : 166ms
    Text #2
    ID : 189 (0xBD)-33 (0x21)
    Format : RLE
    Format/Info : Run-length encoding
    Muxing mode : DVD-Video
    Duration : 18mn 27s
    Delay relative to video : 166ms
    Text #3
    ID : 189 (0xBD)-34 (0x22)
    Format : RLE
    Format/Info : Run-length encoding
    Muxing mode : DVD-Video
    Duration : 18mn 27s
    Delay relative to video : 166ms
    Menu

    Скриншоты для ознакомления

    Залил: carisha
    Размер скачиваемого торрента: 7.79 GB (8362375168 Bytes)

    Город грехов/Sin City Recut (2005) DVD9 | Режиссерская версия торрент скачать бесплатно
    загрузка...
    Рейтинг →
     (голосов: 1, оценка 5/5, голосовать можно 1 раз )

    Другие торренты по теме:

  • Город грехов / Sin city (2005) BDrip 720p от R.G. 48 seconds от zlofenix
  • OST - Город грехов / Sin City (2005) MP3
  • Город грехов / Sin City (2005) HDRip-AVC | D
  • Город грехов / Sin City (2005) DVD5 | D
  • Город грехов / Sin City (2005) BDRip 720p от IIIKOJIO3ABP | GER Transfer скачать через торрент бесплатно
  • Город грехов 2 WEBDLRip (2014) скачать через торрент бесплатно
  • Город грехов / Sin City (2005) BDRip от HQCLUB скачать через торрент бесплатно
  • Город грехов 2: Женщина, ради которой стоит убивать / Sin City: A Dame to Kill For скачать через торрент бесплатно


    • Комментарии (0):

      Информация

      Информация

        Посетители, находящиеся в группе Гости, не могут оставлять комментарии в данной новости.

        ↓ Меню



        ↓ Опрос

        А Вы добавили сайт в закладки?
        Да
        Не


        Top 10 за месяц (Фильмы)