.
Авторизация | Регистрация
» » Этим утром в Нью-Йорке / The Angriest Man in Brooklyn (2014) HDRip-AVC от New-Team | D | лицензия скачать через торрент бесплатно




    Этим утром в Нью-Йорке / The Angriest Man in Brooklyn (2014) HDRip-AVC от New-Team | D | лицензия скачать через торрент бесплатно

    Опубликовал: Админ | Дата: 27-02-2015, 11:10 | Просмотров: 101

    Измени жизнь за 90 минут

    Снималось в: США/AMIB Productions, Cargo Entertainment, Films de Force Majeure, Landscape Entertainment, MICA Entertainment, Prominent Media Group, Vedette Finance
    Категория жанра: драма, комедия
    Создали в: 2014
    Время просмотра: 01:32:48
    Перевод текста:Профессиональный (дублированный)
    Субтитры подготовлены: нет
    Оригинальная аудиодорожка: английский
    Главный режиссер: Фил Олден Робинсон/Phil Alden Robinson
    Актеры: Робин Уильямс, Мила Кунис, Питер Динклэйдж, Мелисса Лео, Хамиш Линклэйтер, Саттон Фостер, Джеймс Эрл Джонс, Ричард Кайнд, Дэниэл Рэймонт, Крис Гезерд...
    Роли дублировали: Леонид Белозорович, Рамиля Искандер, Илья Исаев, Елена Войновская, Дмитрий Поляновский...
    Сюжет: Женщина-врач по ошибке сообщает одному вредному пациенту, что ему осталось жить полтора часа. Стремясь исправить свою адскую оплошность, она устремляется на поиски человека, который решил, пока не поздно, исправить все ошибки, совершенные им в жизни.

    Качество фильма: Качество: HDRip-AVC/DVD9 R5 - лицензионный диск от Lizard Cinema Trade + Etim.utrom.v.Nyu.Yorke.2014.D.BDRip.720p.mkv
    Тип видео: MKV
    Информация о видео: 1024x576, MPEG-4 AVC, 2475 kbps/23,976 fps/16:9/bit/pix=0.175
    Информация о звуке 1: Russian: 48 kHz, AC3, 3/2 (L,C,R,l,r) + LFE ch, 448.00 kbps constant
    Информация о звуке 2: English: 48 kHz, AC3, 3/2 (L,C,R,l,r) + LFE ch, 448.00 kbps constant
    Дополнительно: Фильм разбит на главы, как на оригинальном Blu-ray диске.
    Раздача от:
    MediaInfo

    Общее
    Полное имя : Etim.utrom.v.Nyu-Yorke.2014.D.HDRip-AVC_New-Team_by_keeper.mkv
    Формат : Matroska
    Версия формата : Version 4/Version 2
    Размер файла : 2,16 Гбайт
    Продолжительность : 1 ч. 32 м.
    Общий поток : 3328 Кбит/сек
    Название фильма : Dual by alesimba_20
    Дата кодирования : UTC 2014-10-30 15:59:01
    Программа кодирования : mkvmerge v7.2.0 (;On Every Street;) 64bit built on Sep 13 2014 15:52:10
    Библиотека кодирования : libebml v1.3.0 + libmatroska v1.4.1
    _STATISTICS_WRITING_APP : mkvmerge v7.2.0 (;On Every Street;) 64bit built on Sep 13 2014 15:52:10
    _STATISTICS_WRITING_DATE_UTC : 2014-10-30 15:59:01
    _STATISTICS_TAGS : BPS DURATION NUMBER_OF_FRAMES NUMBER_OF_BYTES
    DURATION : 01:23:44.000000000
    NUMBER_OF_FRAMES : 157000
    NUMBER_OF_BYTES : 281344000
    Видео
    Идентификатор : 1
    Формат : AVC
    Формат/Информация : Advanced Video Codec
    Профиль формата : High@L4.1
    Параметр CABAC формата : Да
    Параметр ReFrames формата : 8 кадров
    Идентификатор кодека : V_MPEG4/ISO/AVC
    Продолжительность : 1 ч. 32 м.
    Битрейт : 2475 Кбит/сек
    Ширина : 1024 пикселя
    Высота : 576 пикселей
    Соотношение сторон : 16:9
    Режим частоты кадров : Постоянный
    Частота кадров : 23,976 кадра/сек
    Цветовое пространство : YUV
    Субдискретизация насыщенности : 4:2:0
    Битовая глубина : 8 бит
    Тип развёртки : Прогрессивная
    Бит/(Пиксели*Кадры) : 0.175
    Размер потока : 1,53 Гбайт (71%)
    Библиотека кодирования : x264 core 130 r2273 b3065e6
    Настройки программы : cabac=1/ref=8/deblock=1:-3:-2/analyse=0x3:0x113/me=umh/subme=10/psy=1/psy_rd=1.00:0.05/mixed_ref=1/me_range=32/chroma_me=1/trellis=2/8x8dct=1/cqm=0/deadzone=21,11/fast_pskip=0/chroma_qp_offset=-3/threads=9/lookahead_threads=1/sliced_threads=0/nr=0/decimate=0/interlaced=0/bluray_compat=0/constrained_intra=0/bframes=8/b_pyramid=2/b_adapt=2/b_bias=0/direct=3/weightb=1/open_gop=0/weightp=2/keyint=240/keyint_min=24/scenecut=40/intra_refresh=0/rc_lookahead=40/rc=2pass/mbtree=1/bitrate=2475/ratetol=1.0/qcomp=0.60/qpmin=0/qpmax=69/qpstep=4/cplxblur=20.0/qblur=0.5/ip_ratio=1.40/aq=1:1.00
    Язык : English
    Default : Да
    Forced : Нет
    DURATION : 01:32:48.855000000
    NUMBER_OF_FRAMES : 133519
    NUMBER_OF_BYTES : 1722420067
    _STATISTICS_WRITING_APP : mkvmerge v7.2.0 (;On Every Street;) 64bit built on Sep 13 2014 15:52:10
    _STATISTICS_WRITING_DATE_UTC : 2014-10-30 15:59:01
    _STATISTICS_TAGS : BPS DURATION NUMBER_OF_FRAMES NUMBER_OF_BYTES
    Аудио #1
    Идентификатор : 2
    Формат : AC-3
    Формат/Информация : Audio Coding 3
    Расширение режима : CM (complete main)
    Параметр Endianness формата : Big
    Идентификатор кодека : A_AC3
    Продолжительность : 1 ч. 32 м.
    Вид битрейта : Постоянный
    Битрейт : 448 Кбит/сек
    Каналы : 6 каналов
    Расположение каналов : Front: L C R, Side: L R, LFE
    Частота : 48,0 КГц
    Битовая глубина : 16 бит
    Метод сжатия : С потерями
    Размер потока : 297 Мбайт (13%)
    Язык : Russian
    Default : Да
    Forced : Нет
    Аудио #2
    Идентификатор : 3
    Формат : AC-3
    Формат/Информация : Audio Coding 3
    Расширение режима : CM (complete main)
    Параметр Endianness формата : Big
    Идентификатор кодека : A_AC3
    Продолжительность : 1 ч. 32 м.
    Вид битрейта : Постоянный
    Битрейт : 448 Кбит/сек
    Каналы : 6 каналов
    Расположение каналов : Front: L C R, Side: L R, LFE
    Частота : 48,0 КГц
    Битовая глубина : 16 бит
    Метод сжатия : С потерями
    Размер потока : 297 Мбайт (13%)
    Язык : English
    Default : Нет
    Forced : Нет
    Меню
    00:00:00.000 : en:(01)00:00:00:000
    00:09:00.331 : en:(02)00:09:00:331
    00:21:51.852 : en:(03)00:21:51:852
    00:28:34.546 : en:(04)00:28:34:546
    00:39:03.215 : en:(05)00:39:03:215
    00:47:26.677 : en:(06)00:47:26:677
    01:00:03.433 : en:(07)01:00:03:433
    01:12:27.176 : en:(08)01:12:27:176
    01:21:03.692 : en:(09)01:21:03:692
    01:27:51.349 : en:(10)01:27:51:349
    01:32:48.980 : en:(11)01:32:48:980

    Скриншоты для ознакомления:



    Размер скачиваемого торрента: 2.16 GB (2317004409 Bytes)

    Этим утром в Нью-Йорке/The Angriest Man in Brooklyn (2014) HDRip-AVC от New-Team | D | лицензия скачать через торрент бесплатно
    загрузка...
    Рейтинг →
     (голосов: 1, оценка 4/5, голосовать можно 1 раз )

    Другие торренты по теме:



      Комментарии (0):

      Информация

      Информация

        Посетители, находящиеся в группе Гости, не могут оставлять комментарии в данной новости.

        ↓ Меню



        ↓ Опрос

        А Вы добавили сайт в закладки?
        Да
        Не


        Top 10 за неделю (Фильмы)