.
Авторизация | Регистрация
Хочешь лучшие торренты? Добавь свой email!
Добавить
» » Мигель и Уильям / Miguel y William / Miguel and William (2007) DVB-T от Deadmauvlad скачать через торрент бесплатно




    Мигель и Уильям / Miguel y William / Miguel and William (2007) DVB-T от Deadmauvlad скачать через торрент бесплатно

    Опубликовал: Админ | Дата: 27-02-2015, 11:10 | Просмотров: 144


    Детально о кино
    Русское название:Мигель и Уильям
    Русское название в мировом прокате:Miguel y William/Miguel and William
    Создали в:2007
    Категория жанра:мелодрама, комедия,...
    Главный режиссер:Инес Парис
    Актеры:Елена Анайа, Хуан Луис Гальярдо, Уилл Кемп, Джеральдин Чаплин, Малена Алтерио, Роберто Каиро, Хорхе Калво, Хуан Фернандез, Оскар Хернандез
    Сюжет фильма:
    Они были современниками и величайшими гениями пера. Но они никогда прежде не встречались. И вот, Мигель де Сервантес и Уильям Шекспир встречаются! Уильям и Мигель знакомятся! А теперь представьте себе: оба полюбили одну очаровательную, бойкую молодую женщину по имени Леонора! Эта особа благородных кровей едет из Лондона в Испанию, чтобы стать супругой герцога Обандо. Но её любовник, Шекспир, более постоянен в своих чувствах, чем она полагала, и является в замок герцога, как раз в тот момент, когда там гостит Сервантес...

    Снималось в:Испания
    Киностудия:Warner Bros. Pictures , Future Films
    Время просмотра:01:35:15
    Перевод текста:Профессиональный (многоголосый, закадровый)
    Файл
    Кодек для видео:AVC
    Качество фильма:DVB-T
    Информация о видео:AVC, 768x576@704x576 (4:3), 1 834 Kbps (MIN) 35.5 MB/S (MAX)
    Информация о звуке:MP2, 48.0 KHz, 2 ch, 192 Kbps, CBR
    ОТЧЕТ MI
    migil.and.william.2007.DVB-T.Deadmauvlad.ts
    Формат : MPEG-TS
    Размер файла : 1,44 Гбайт
    Продолжительность : 1 ч. 36 м.
    Режим общего битрейта : Переменный
    Общий поток : 2133 Кбит/сек
    Максимальный общий битрейт : 35,5 Мбит/сек
    Видео
    Идентификатор : 4113 (0x1011)
    Идентификатор меню : 1 (0x1)
    Формат : AVC
    Формат/Информация : Advanced Video Codec
    Профиль формата : High@L3.0
    Параметр CABAC формата : Да
    Параметр ReFrames формата : 4 кадра
    Идентификатор кодека : 27
    Продолжительность : 1 ч. 36 м.
    Вид битрейта : Переменный
    Битрейт : 1834 Кбит/сек
    Максимальный битрейт : 1800 Кбит/сек
    Ширина : 704 пикселя
    Высота : 576 пикселей
    Соотношение сторон : 4:3
    Режим частоты кадров : Переменный
    Стандарт вещания : PAL
    Цветовое пространство : YUV
    Субдискретизация насыщенности : 4:2:0
    Битовая глубина : 8 бит
    Тип развёртки : MBAFF
    Размер потока : 1,24 Гбайт (86%)
    Аудио
    Идентификатор : 4352 (0x1100)
    Идентификатор меню : 1 (0x1)
    Формат : MPEG Audio
    Версия формата : Version 1
    Профиль формата : Layer 2
    Идентификатор кодека : 4
    Продолжительность : 1 ч. 36 м.
    Вид битрейта : Постоянный
    Битрейт : 192 Кбит/сек
    Каналы : 2 канала
    Частота : 48,0 КГц
    Метод сжатия : С потерями
    Размер потока : 133 Мбайт (9%)
    Язык : Russian

    Скриншоты для ознакомления

    Релиз подготовил:Deadmauvlad
    Залил: DJ_V.K_TV
    Размер скачиваемого торрента: 1.44 GB (1549491488 Bytes)

    Мигель и Уильям/Miguel y William/Miguel and William (2007) DVB-T от Deadmauvlad скачать через торрент бесплатно
    загрузка...
    Рейтинг →
     (голосов: 1, оценка 4/5, голосовать можно 1 раз )

    Другие торренты по теме:

  • Мигель и Уильям / Miguel y William (2007) DVDRip | P


    • Комментарии (0):

      Информация

      Информация

        Посетители, находящиеся в группе Гости, не могут оставлять комментарии в данной новости.

        ↓ Меню



        ↓ Опрос

        А Вы добавили сайт в закладки?
        Да
        Не


        Top 10 за месяц (Фильмы)