.
Авторизация | Регистрация
Хочешь лучшие торренты? Добавь свой email!
Добавить
» » Полицейская академия: Антология / Police Academy: The Complete Collection (1984-1994) BDRip 720p скачать через торрент бесплатно




    Полицейская академия: Антология / Police Academy: The Complete Collection (1984-1994) BDRip 720p скачать через торрент бесплатно

    Опубликовал: Админ | Дата: 27-02-2015, 11:10 | Просмотров: 180

    Полицейская академия/Police Academy (1984)

    Детально о кино
    Русское название:Полицейская академия
    Русское название в мировом прокате:Police Academy
    Создали в:1984
    Категория жанра:комедия, криминал
    Главный режиссер:Хью Уилсон
    Актеры:Стив Гуттенберг, Ким Кэтролл, Дж. У. Бейли, Бубба Смит, Донован Скотт, Джордж Гейнс, Эндрю Рубин, Дэвид Граф, Лесли Истербрук, Майкл Уинслоу
    Сюжет фильма:Мирные жители США находятся в опасности! Мэр города принял новый закон — больше нет никаких ограничений при приеме на службу в полицию. Вес, пол, рост и слабые умственные способности никому не помешают поступить в полицейскую академию. Приемные комиссии ломятся от толстяков, ботаников и уличных хулиганов. Преподаватели академии в шоке и намерены любым способом избавиться от студентов. Но экзамены, физподготовка и гей-бары абсолютно не страшат новичков. Не такое видали!..

    Снималось в:USA
    Киностудия:Ladd Company, The, Warner Bros.
    Время просмотра:01:36:24
    Перевод текста:профессиональный (полное дублирование), профессиональный (многоголосый закадровый), профессиональный (двуголосый закадровый), авторский (одноголосый закадровый)
    Субтитры:русские, английские
    Файл
    Кодек для видео:MPEG-4 AVC/H.264
    Качество фильма:BDRip 720p
    Информация о видео:1280 x 720, (16:9), 10 400 kbps, 23.976 fps, 0.473 b/px
    Информация о звуке:
    Информация о звуке # 1:AC3, 2 ch, 192 kbps, 48 000 Hz Дублированный (Варус Видео)
    Информация о звуке # 2:АС3, 2 ch, 192 kbps, 48 000 Hz Многоголосый закадровый (ВГТРК)
    Информация о звуке # 3:АС3, 2 ch, 192 kbps, 48 000 Hz Многоголосый закадровый (Интер)
    Информация о звуке # 4:DTS, 1 ch, 252 kbps, 48 000 Hz Двуголосый закадровый (Карусель)
    Информация о звуке # 5:АС3, 2 ch, 192 kbps, 48 000 Hz Двуголосый закадровый (НТВ)
    Информация о звуке # 6:АС3, 2 ch, 192 kbps, 48 000 Hz Двуголосый закадровый (Universal Channel)
    Информация о звуке # 7:DTS, 1 ch, 252 kbps, 48 000 Hz Одноголосый закадровый (А.Михалев)
    Информация о звуке # 8:АС3, 2 ch, 192 kbps, 48 000 Hz Одноголосый закадровый (Л.Володарский)
    Информация о звуке # 9:АС3, 2 ch, 192 kbps, 48 000 Hz Оногоголосый закадровый (1+1) (Украинский)
    Информация о звуке # 10:DTS, 1 ch, 768 kbps, 48 000 Hz Оригинальный
    MediaInfo
    Общее
    Уникальный идентификатор : 240432256830583318497942658879619691800 (0xB4E1917C4884C81B9AEEAE960AFD7518)
    Полное имя : E:Video-TorrenПолицейская академия. Антология BDRip 720p1984 Полицейская академия BDRip 720p.mkv
    Формат : Matroska
    Версия формата : Version 4/Version 2
    Размер файла : 8,98 Гбайт
    Продолжительность : 1 ч. 36 м.
    Общий поток : 13,3 Мбит/сек
    Название фильма : Полицейская академия/Police Academy (1984) BDRip 720p
    Дата кодирования : UTC 2014-10-28 07:39:20
    Программа кодирования : mkvmerge v7.2.0 (;On Every Street;) 32bit built on Sep 13 2014 15:42:11
    Библиотека кодирования : libebml v1.3.0 + libmatroska v1.4.1
    DURATION : 01:35:48.117000000
    NUMBER_OF_FRAMES : 1175
    NUMBER_OF_BYTES : 37616
    _STATISTICS_WRITING_APP : mkvmerge v7.2.0 (;On Every Street;) 32bit built on Sep 13 2014 15:42:11
    _STATISTICS_WRITING_DATE_UTC : 2014-10-28 07:39:20
    _STATISTICS_TAGS : BPS DURATION NUMBER_OF_FRAMES NUMBER_OF_BYTES
    Видео
    Идентификатор : 1
    Формат : AVC
    Формат/Информация : Advanced Video Codec
    Профиль формата : High@L4.1
    Параметр CABAC формата : Да
    Параметр ReFrames формата : 9 кадров
    Идентификатор кодека : V_MPEG4/ISO/AVC
    Продолжительность : 1 ч. 36 м.
    Битрейт : 10,4 Мбит/сек
    Ширина : 1280 пикселей
    Высота : 720 пикселей
    Соотношение сторон : 16:9
    Режим частоты кадров : Постоянный
    Частота кадров : 23,976 кадра/сек
    Цветовое пространство : YUV
    Субдискретизация насыщенности : 4:2:0
    Битовая глубина : 8 бит
    Тип развёртки : Прогрессивная
    Бит/(Пиксели*Кадры) : 0.473
    Размер потока : 7,04 Гбайт (78%)
    Заголовок : 1984 Полицейская академия BDRip 720p
    Библиотека кодирования : x264 core 125 r2200kMod 999b753
    Настройки программы : cabac=1/ref=9/deblock=1:-3:-3/analyse=0x3:0x113/me=umh/subme=11/psy=1/fade_compensate=0.00/psy_rd=1.30:0.00/mixed_ref=1/me_range=16/chroma_me=1/trellis=2/8x8dct=1/cqm=0/deadzone=21,11/fast_pskip=0/chroma_qp_offset=-2/threads=6/lookahead_threads=1/sliced_threads=0/nr=0/decimate=0/interlaced=0/bluray_compat=0/constrained_intra=0/bframes=8/b_pyramid=2/b_adapt=2/b_bias=0/direct=3/weightb=1/open_gop=0/weightp=2/keyint=250/keyint_min=23/scenecut=40/intra_refresh=0/rc=crf/mbtree=0/crf=17.5000/qcomp=0.80/qpmin=0/qpmax=69/qpstep=4/ip_ratio=1.40/pb_ratio=1.30/aq=1:0.65
    Язык : English
    Default : Да
    Forced : Нет
    DURATION : 01:36:24.821000000
    NUMBER_OF_FRAMES : 138697
    NUMBER_OF_BYTES : 7742825024
    _STATISTICS_WRITING_APP : mkvmerge v7.2.0 (;On Every Street;) 32bit built on Sep 13 2014 15:42:11
    _STATISTICS_WRITING_DATE_UTC : 2014-10-28 07:39:20
    _STATISTICS_TAGS : BPS DURATION NUMBER_OF_FRAMES NUMBER_OF_BYTES
    Аудио #1
    Идентификатор : 2
    Формат : AC-3
    Формат/Информация : Audio Coding 3
    Расширение режима : CM (complete main)
    Параметр Endianness формата : Big
    Идентификатор кодека : A_AC3
    Продолжительность : 1 ч. 36 м.
    Вид битрейта : Постоянный
    Битрейт : 192 Кбит/сек
    Каналы : 2 канала
    Расположение каналов : Front: L R
    Частота : 48,0 КГц
    Битовая глубина : 16 бит
    Метод сжатия : С потерями
    Размер потока : 132 Мбайт (1%)
    Заголовок : Дублированный Варус Видео
    Язык : Russian
    Default : Да
    Forced : Нет
    Аудио #2
    Идентификатор : 3
    Формат : AC-3
    Формат/Информация : Audio Coding 3
    Расширение режима : CM (complete main)
    Параметр Endianness формата : Big
    Идентификатор кодека : A_AC3
    Продолжительность : 1 ч. 36 м.
    Вид битрейта : Постоянный
    Битрейт : 192 Кбит/сек
    Каналы : 2 канала
    Расположение каналов : Front: L R
    Частота : 48,0 КГц
    Битовая глубина : 16 бит
    Метод сжатия : С потерями
    Размер потока : 132 Мбайт (1%)
    Заголовок : Многоголосый закадровый ВГТРК
    Язык : Russian
    Default : Нет
    Forced : Нет
    Аудио #3
    Идентификатор : 4
    Формат : AC-3
    Формат/Информация : Audio Coding 3
    Расширение режима : CM (complete main)
    Параметр Endianness формата : Big
    Идентификатор кодека : A_AC3
    Продолжительность : 1 ч. 36 м.
    Вид битрейта : Постоянный
    Битрейт : 192 Кбит/сек
    Каналы : 2 канала
    Расположение каналов : Front: L R
    Частота : 48,0 КГц
    Битовая глубина : 16 бит
    Метод сжатия : С потерями
    Размер потока : 132 Мбайт (1%)
    Заголовок : Многоголосый закадровый Интер
    Язык : Russian
    Default : Нет
    Forced : Нет
    Аудио #4
    Идентификатор : 5
    Формат : DTS
    Формат/Информация : Digital Theater Systems
    Режим : 16
    Параметр Endianness формата : Big
    Идентификатор кодека : A_DTS
    Продолжительность : 1 ч. 36 м.
    Вид битрейта : Постоянный
    Битрейт : 255 Кбит/сек
    Каналы : 1 канал
    Расположение каналов : Front: C
    Частота : 48,0 КГц
    Битовая глубина : 24 бит
    Метод сжатия : С потерями
    Размер потока : 176 Мбайт (2%)
    Заголовок : Двуголосый закадровый Карусель
    Язык : Russian
    Default : Нет
    Forced : Нет
    Аудио #5
    Идентификатор : 6
    Формат : AC-3
    Формат/Информация : Audio Coding 3
    Расширение режима : CM (complete main)
    Параметр Endianness формата : Big
    Идентификатор кодека : A_AC3
    Продолжительность : 1 ч. 36 м.
    Вид битрейта : Постоянный
    Битрейт : 192 Кбит/сек
    Каналы : 2 канала
    Расположение каналов : Front: L R
    Частота : 48,0 КГц
    Битовая глубина : 16 бит
    Метод сжатия : С потерями
    Размер потока : 132 Мбайт (1%)
    Заголовок : Двуголосый закадровый НТВ
    Язык : Russian
    Default : Нет
    Forced : Нет
    Аудио #6
    Идентификатор : 7
    Формат : AC-3
    Формат/Информация : Audio Coding 3
    Расширение режима : CM (complete main)
    Параметр Endianness формата : Big
    Идентификатор кодека : A_AC3
    Продолжительность : 1 ч. 36 м.
    Вид битрейта : Постоянный
    Битрейт : 192 Кбит/сек
    Каналы : 2 канала
    Расположение каналов : Front: L R
    Частота : 48,0 КГц
    Битовая глубина : 16 бит
    Метод сжатия : С потерями
    Размер потока : 132 Мбайт (1%)
    Заголовок : Двуголосый закадровый Universal Channel
    Язык : Russian
    Default : Нет
    Forced : Нет
    Аудио #7
    Идентификатор : 8
    Формат : DTS
    Формат/Информация : Digital Theater Systems
    Режим : 16
    Параметр Endianness формата : Big
    Идентификатор кодека : A_DTS
    Продолжительность : 1 ч. 36 м.
    Вид битрейта : Постоянный
    Битрейт : 255 Кбит/сек
    Каналы : 1 канал
    Расположение каналов : Front: C
    Частота : 48,0 КГц
    Битовая глубина : 24 бит
    Метод сжатия : С потерями
    Размер потока : 176 Мбайт (2%)
    Заголовок : Одноголосый закадровый А.Михалев
    Язык : Russian
    Default : Нет
    Forced : Нет
    Аудио #8
    Идентификатор : 9
    Формат : AC-3
    Формат/Информация : Audio Coding 3
    Расширение режима : CM (complete main)
    Параметр Endianness формата : Big
    Идентификатор кодека : A_AC3
    Продолжительность : 1 ч. 36 м.
    Вид битрейта : Постоянный
    Битрейт : 192 Кбит/сек
    Каналы : 2 канала
    Расположение каналов : Front: L R
    Частота : 48,0 КГц
    Битовая глубина : 16 бит
    Метод сжатия : С потерями
    Размер потока : 132 Мбайт (1%)
    Заголовок : Одноголосый закадровый Л.Володарский
    Язык : Russian
    Default : Нет
    Forced : Нет
    Аудио #9
    Идентификатор : 10
    Формат : AC-3
    Формат/Информация : Audio Coding 3
    Расширение режима : CM (complete main)
    Параметр Endianness формата : Big
    Идентификатор кодека : A_AC3
    Продолжительность : 1 ч. 36 м.
    Вид битрейта : Постоянный
    Битрейт : 192 Кбит/сек
    Каналы : 2 канала
    Расположение каналов : Front: L R
    Частота : 48,0 КГц
    Битовая глубина : 16 бит
    Метод сжатия : С потерями
    Размер потока : 132 Мбайт (1%)
    Заголовок : Многоголосый закадровый 1+1
    Язык : Ukrainian
    Default : Нет
    Forced : Нет
    Аудио #10
    Идентификатор : 11
    Формат : DTS
    Формат/Информация : Digital Theater Systems
    Режим : 16
    Параметр Endianness формата : Big
    Идентификатор кодека : A_DTS
    Продолжительность : 1 ч. 36 м.
    Вид битрейта : Постоянный
    Битрейт : 768 Кбит/сек
    Каналы : 1 канал
    Расположение каналов : Front: C
    Частота : 48,0 КГц
    Битовая глубина : 24 бит
    Метод сжатия : С потерями
    Размер потока : 530 Мбайт (6%)
    Заголовок : Оригинальный
    Язык : English
    Default : Нет
    Forced : Нет
    Текст #1
    Идентификатор : 12
    Формат : UTF-8
    Идентификатор кодека : S_TEXT/UTF8
    Идентификатор кодека/Информация : UTF-8 Plain Text
    Заголовок : Русские
    Язык : Russian
    Default : Нет
    Forced : Нет
    Текст #2
    Идентификатор : 13
    Формат : UTF-8
    Идентификатор кодека : S_TEXT/UTF8
    Идентификатор кодека/Информация : UTF-8 Plain Text
    Заголовок : English
    Язык : English
    Default : Нет
    Forced : Нет
    Меню #1
    00:00:00.000 : en:Chapter 1
    00:01:09.820 : en:Chapter 2
    00:03:52.107 : en:Chapter 3
    00:05:36.920 : en:Chapter 4
    00:06:50.952 : en:Chapter 5
    00:09:35.825 : en:Chapter 6
    00:11:08.877 : en:Chapter 7
    00:15:17.041 : en:Chapter 8
    00:18:32.653 : en:Chapter 9
    00:20:40.489 : en:Chapter 10
    00:23:05.551 : en:Chapter 11
    00:27:00.828 : en:Chapter 12
    00:30:33.248 : en:Chapter 13
    00:33:24.044 : en:Chapter 14
    00:36:35.360 : en:Chapter 15
    00:41:51.759 : en:Chapter 16
    00:48:57.309 : en:Chapter 17
    00:52:07.374 : en:Chapter 18
    00:53:30.416 : en:Chapter 19
    01:00:46.852 : en:Chapter 20
    01:04:58.311 : en:Chapter 21
    01:08:54.630 : en:Chapter 22
    01:11:41.631 : en:Chapter 23
    01:13:50.051 : en:Chapter 24
    01:17:08.707 : en:Chapter 25
    01:21:16.246 : en:Chapter 26
    01:23:28.170 : en:Chapter 27
    01:24:51.670 : en:Chapter 28
    01:28:18.460 : en:Chapter 29
    01:29:54.180 : en:Chapter 30
    01:33:07.999 : en:Chapter 31
    Меню #2
    00:00:00.054 : en:00:00:00.054

    Скриншоты для ознакомления

    Полицейская академия 2: Их первое задание/Police Academy 2: Their First Assignment (1985)

    Детально о кино
    Русское название:Полицейская академия 2: Их первое задание
    Русское название в мировом прокате:Police Academy 2: Their First Assignment
    Создали в:1985
    Категория жанра:комедия, криминал
    Главный режиссер:Джерри Пэрис
    Актеры:Стив Гуттенберг, Бубба Смит, Дэвид Граф, Майкл Уинслоу, Брюс Малер, Мэрион Рэмси, Коллин Кэмп, Ховард Хессеман, Арт Метрано, Джордж Гейнс
    Сюжет фильма:Банда хулиганов творит безобразия по всему городу и опустошает карманы всех, кто находится с ними на одном тротуаре. Осторожно! Когда увальни в голубой форме решат разобраться с этими парнями, это закончится умопомрачительным смехом...

    Снималось в:USA
    Киностудия:Warner Bros., Ladd Company, The
    Время просмотра:01:27:09
    Перевод текста:профессиональный (полное дублирование), профессиональный (многоголосый закадровый), профессиональный (двуголосый закадровый), авторский (одноголосый закадровый)
    Субтитры:русские, английские
    Файл
    Кодек для видео:MPEG-4 AVC/H.264
    Качество фильма:BDRip 720p
    Информация о видео:1280 x 720, (16:9), 9 775 kbps, 23.976 fps, 0.442 b/px
    Информация о звуке:
    Информация о звуке # 1:AC3, 2 ch, 192 kbps, 48 000 Hz Дублированный (Варус Видео)
    Информация о звуке # 2:АС3, 2 ch, 192 kbps, 48 000 Hz Многоголосый закадровый (ВГТРК)
    Информация о звуке # 3:DTS, 1 ch, 510 kbps, 48 000 Hz Двуголосый закадровый (Карусель)
    Информация о звуке # 4:АС3, 2 ch, 192 kbps, 48 000 Hz Двуголосый закадровый (НТВ)
    Информация о звуке # 5:АС3, 2 ch, 192 kbps, 48 000 Hz Двуголосый закадровый (Universal Channel)
    Информация о звуке # 6:DTS, 1 ch, 510 kbps, 48 000 Hz Одноголосый закадровый (А.Михалев)
    Информация о звуке # 7:АС3, 2 ch, 192 kbps, 48 000 Hz Одноголосый закадровый (А.Гаврилов)
    Информация о звуке # 8:АС3, 2 ch, 192 kbps, 48 000 Hz Одноголосый закадровый (Л.Володарский)
    Информация о звуке # 9:АС3, 2 ch, 192 kbps, 48 000 Hz Многоголосый закадровый (1+1) (Украинский)
    Информация о звуке # 10:DTS, 1 ch, 768 kbps, 48 000 Hz Оригинальный
    MediaInfo
    Общее
    Уникальный идентификатор : 178585063337006196955024643731436883343 (0x865A3B6B915607D4AF8FF666ACC84D8F)
    Полное имя : E:Video-TorrentПолицейская академия. Антология BDRip 720p1985 Полицейская академия 2. Их первое задание BDRip 720p.mkv
    Формат : Matroska
    Версия формата : Version 4/Version 2
    Размер файла : 8,02 Гбайт
    Продолжительность : 1 ч. 27 м.
    Общий поток : 13,2 Мбит/сек
    Название фильма : Полицейская академия 2: Их первое задание/Police Academy 2: Their First Assignment (1985) BDRip 720p
    Дата кодирования : UTC 2014-10-28 09:38:28
    Программа кодирования : mkvmerge v7.2.0 (;On Every Street;) 32bit built on Sep 13 2014 15:42:11
    Библиотека кодирования : libebml v1.3.0 + libmatroska v1.4.1
    DURATION : 01:25:39.175000000
    NUMBER_OF_FRAMES : 1118
    NUMBER_OF_BYTES : 40376
    _STATISTICS_WRITING_APP : mkvmerge v7.2.0 (;On Every Street;) 32bit built on Sep 13 2014 15:42:11
    _STATISTICS_WRITING_DATE_UTC : 2014-10-28 09:38:28
    _STATISTICS_TAGS : BPS DURATION NUMBER_OF_FRAMES NUMBER_OF_BYTES
    Видео
    Идентификатор : 1
    Формат : AVC
    Формат/Информация : Advanced Video Codec
    Профиль формата : High@L4.1
    Параметр CABAC формата : Да
    Параметр ReFrames формата : 9 кадров
    Идентификатор кодека : V_MPEG4/ISO/AVC
    Продолжительность : 1 ч. 27 м.
    Битрейт : 9775 Кбит/сек
    Ширина : 1280 пикселей
    Высота : 720 пикселей
    Соотношение сторон : 16:9
    Режим частоты кадров : Постоянный
    Частота кадров : 23,976 кадра/сек
    Цветовое пространство : YUV
    Субдискретизация насыщенности : 4:2:0
    Битовая глубина : 8 бит
    Тип развёртки : Прогрессивная
    Бит/(Пиксели*Кадры) : 0.442
    Размер потока : 5,95 Гбайт (74%)
    Заголовок : 1985 Полицейская академия 2. Их первое задание BDRip 720p
    Библиотека кодирования : x264 core 125 r2200kMod 999b753
    Настройки программы : cabac=1/ref=9/deblock=1:-3:-3/analyse=0x3:0x113/me=umh/subme=11/psy=1/fade_compensate=0.00/psy_rd=1.25:0.00/mixed_ref=1/me_range=16/chroma_me=1/trellis=2/8x8dct=1/cqm=0/deadzone=21,11/fast_pskip=0/chroma_qp_offset=-2/threads=6/lookahead_threads=1/sliced_threads=0/nr=0/decimate=0/interlaced=0/bluray_compat=0/constrained_intra=0/bframes=8/b_pyramid=2/b_adapt=2/b_bias=0/direct=3/weightb=1/open_gop=0/weightp=2/keyint=250/keyint_min=23/scenecut=40/intra_refresh=0/rc=crf/mbtree=0/crf=17.5000/qcomp=0.80/qpmin=0/qpmax=69/qpstep=4/ip_ratio=1.30/pb_ratio=1.20/aq=1:0.80
    Язык : English
    Default : Да
    Forced : Нет
    DURATION : 01:27:09.266000000
    NUMBER_OF_FRAMES : 125377
    NUMBER_OF_BYTES : 6558059546
    _STATISTICS_WRITING_APP : mkvmerge v7.2.0 (;On Every Street;) 32bit built on Sep 13 2014 15:42:11
    _STATISTICS_WRITING_DATE_UTC : 2014-10-28 09:38:28
    _STATISTICS_TAGS : BPS DURATION NUMBER_OF_FRAMES NUMBER_OF_BYTES
    Аудио #1
    Идентификатор : 2
    Формат : AC-3
    Формат/Информация : Audio Coding 3
    Расширение режима : CM (complete main)
    Параметр Endianness формата : Big
    Идентификатор кодека : A_AC3
    Продолжительность : 1 ч. 27 м.
    Вид битрейта : Постоянный
    Битрейт : 192 Кбит/сек
    Каналы : 2 канала
    Расположение каналов : Front: L R
    Частота : 48,0 КГц
    Битовая глубина : 16 бит
    Метод сжатия : С потерями
    Размер потока : 120 Мбайт (1%)
    Заголовок : Дублированный Варус Видео
    Язык : Russian
    Default : Да
    Forced : Нет
    Аудио #2
    Идентификатор : 3
    Формат : AC-3
    Формат/Информация : Audio Coding 3
    Расширение режима : CM (complete main)
    Параметр Endianness формата : Big
    Идентификатор кодека : A_AC3
    Продолжительность : 1 ч. 27 м.
    Вид битрейта : Постоянный
    Битрейт : 192 Кбит/сек
    Каналы : 2 канала
    Расположение каналов : Front: L R
    Частота : 48,0 КГц
    Битовая глубина : 16 бит
    Метод сжатия : С потерями
    Размер потока : 120 Мбайт (1%)
    Заголовок : Многоголосый закадровый ВГТРК
    Язык : Russian
    Default : Нет
    Forced : Нет
    Аудио #3
    Идентификатор : 4
    Формат : DTS
    Формат/Информация : Digital Theater Systems
    Режим : 16
    Параметр Endianness формата : Big
    Идентификатор кодека : A_DTS
    Продолжительность : 1 ч. 27 м.
    Вид битрейта : Постоянный
    Битрейт : 510 Кбит/сек
    Каналы : 1 канал
    Расположение каналов : Front: C
    Частота : 48,0 КГц
    Битовая глубина : 24 бит
    Метод сжатия : С потерями
    Размер потока : 318 Мбайт (4%)
    Заголовок : Двуголосый закадровый Карусель
    Язык : Russian
    Default : Нет
    Forced : Нет
    Аудио #4
    Идентификатор : 5
    Формат : AC-3
    Формат/Информация : Audio Coding 3
    Расширение режима : CM (complete main)
    Параметр Endianness формата : Big
    Идентификатор кодека : A_AC3
    Продолжительность : 1 ч. 27 м.
    Вид битрейта : Постоянный
    Битрейт : 192 Кбит/сек
    Каналы : 2 канала
    Расположение каналов : Front: L R
    Частота : 48,0 КГц
    Битовая глубина : 16 бит
    Метод сжатия : С потерями
    Размер потока : 120 Мбайт (1%)
    Заголовок : Двуголосый закадровый НТВ
    Язык : Russian
    Default : Нет
    Forced : Нет
    Аудио #5
    Идентификатор : 6
    Формат : AC-3
    Формат/Информация : Audio Coding 3
    Расширение режима : CM (complete main)
    Параметр Endianness формата : Big
    Идентификатор кодека : A_AC3
    Продолжительность : 1 ч. 27 м.
    Вид битрейта : Постоянный
    Битрейт : 192 Кбит/сек
    Каналы : 2 канала
    Расположение каналов : Front: L R
    Частота : 48,0 КГц
    Битовая глубина : 16 бит
    Метод сжатия : С потерями
    Размер потока : 120 Мбайт (1%)
    Заголовок : Двуголосый закадровый Universal Channel
    Язык : Russian
    Default : Нет
    Forced : Нет
    Аудио #6
    Идентификатор : 7
    Формат : DTS
    Формат/Информация : Digital Theater Systems
    Режим : 16
    Параметр Endianness формата : Big
    Идентификатор кодека : A_DTS
    Продолжительность : 1 ч. 27 м.
    Вид битрейта : Постоянный
    Битрейт : 510 Кбит/сек
    Каналы : 1 канал
    Расположение каналов : Front: C
    Частота : 48,0 КГц
    Битовая глубина : 24 бит
    Метод сжатия : С потерями
    Размер потока : 318 Мбайт (4%)
    Заголовок : Одноголосый закадровый А.Михалев
    Язык : Russian
    Default : Нет
    Forced : Нет
    Аудио #7
    Идентификатор : 8
    Формат : AC-3
    Формат/Информация : Audio Coding 3
    Расширение режима : CM (complete main)
    Параметр Endianness формата : Big
    Идентификатор кодека : A_AC3
    Продолжительность : 1 ч. 27 м.
    Вид битрейта : Постоянный
    Битрейт : 192 Кбит/сек
    Каналы : 2 канала
    Расположение каналов : Front: L R
    Частота : 48,0 КГц
    Битовая глубина : 16 бит
    Метод сжатия : С потерями
    Размер потока : 120 Мбайт (1%)
    Заголовок : Одноголосый закадровый А.Гаврилов
    Язык : Russian
    Default : Нет
    Forced : Нет
    Аудио #8
    Идентификатор : 9
    Формат : AC-3
    Формат/Информация : Audio Coding 3
    Расширение режима : CM (complete main)
    Параметр Endianness формата : Big
    Идентификатор кодека : A_AC3
    Продолжительность : 1 ч. 27 м.
    Вид битрейта : Постоянный
    Битрейт : 192 Кбит/сек
    Каналы : 2 канала
    Расположение каналов : Front: L R
    Частота : 48,0 КГц
    Битовая глубина : 16 бит
    Метод сжатия : С потерями
    Размер потока : 120 Мбайт (1%)
    Заголовок : Одноголосый закадровый Л.Володарский
    Язык : Russian
    Default : Нет
    Forced : Нет
    Аудио #9
    Идентификатор : 10
    Формат : AC-3
    Формат/Информация : Audio Coding 3
    Расширение режима : CM (complete main)
    Параметр Endianness формата : Big
    Идентификатор кодека : A_AC3
    Продолжительность : 1 ч. 27 м.
    Вид битрейта : Постоянный
    Битрейт : 192 Кбит/сек
    Каналы : 2 канала
    Расположение каналов : Front: L R
    Частота : 48,0 КГц
    Битовая глубина : 16 бит
    Метод сжатия : С потерями
    Размер потока : 120 Мбайт (1%)
    Заголовок : Многоголосый закадровый 1+1
    Язык : Ukrainian
    Default : Нет
    Forced : Нет
    Аудио #10
    Идентификатор : 11
    Формат : DTS
    Формат/Информация : Digital Theater Systems
    Режим : 16
    Параметр Endianness формата : Big
    Идентификатор кодека : A_DTS
    Продолжительность : 1 ч. 27 м.
    Вид битрейта : Постоянный
    Битрейт : 768 Кбит/сек
    Каналы : 1 канал
    Расположение каналов : Front: C
    Частота : 48,0 КГц
    Битовая глубина : 24 бит
    Метод сжатия : С потерями
    Размер потока : 479 Мбайт (6%)
    Заголовок : Оригинальный
    Язык : English
    Default : Нет
    Forced : Нет
    Текст #1
    Идентификатор : 12
    Формат : UTF-8
    Идентификатор кодека : S_TEXT/UTF8
    Идентификатор кодека/Информация : UTF-8 Plain Text
    Заголовок : Русские
    Язык : Russian
    Default : Нет
    Forced : Нет
    Текст #2
    Идентификатор : 13
    Формат : UTF-8
    Идентификатор кодека : S_TEXT/UTF8
    Идентификатор кодека/Информация : UTF-8 Plain Text
    Заголовок : English
    Язык : English
    Default : Нет
    Forced : Нет
    Меню
    00:00:00.000 : en:Chapter 1
    00:06:53.830 : en:Chapter 2
    00:12:17.362 : en:Chapter 3
    00:16:46.297 : en:Chapter 4
    00:25:00.999 : en:Chapter 5
    00:29:06.161 : en:Chapter 6
    00:30:43.300 : en:Chapter 7
    00:32:32.951 : en:Chapter 8
    00:34:43.206 : en:Chapter 9
    00:37:49.809 : en:Chapter 10
    00:45:56.587 : en:Chapter 11
    00:48:09.678 : en:Chapter 12
    00:50:48.629 : en:Chapter 13
    00:54:06.493 : en:Chapter 14
    00:57:22.022 : en:Chapter 15
    00:59:37.491 : en:Chapter 16
    01:03:59.127 : en:Chapter 17
    01:08:13.548 : en:Chapter 18
    01:10:01.155 : en:Chapter 19
    01:15:25.312 : en:Chapter 20
    01:22:18.058 : en:Chapter 21
    01:23:56.990 : en:Chapter 22

    Скриншоты для ознакомления

    Полицейская академия 3: Переподготовка/Police Academy 3: Back in Training (1986)

    Детально о кино
    Русское название:Полицейская академия 3: Переподготовка
    Русское название в мировом прокате:Police Academy 3: Back in Training
    Создали в:1986
    Категория жанра:комедия, криминал
    Главный режиссер:Джерри Пэрис
    Актеры:Стив Гуттенберг, Бубба Смит, Дэвид Граф, Майкл Уинслоу, Мэрион Рэмси, Лесли Истербрук, Арт Метрано, Тим Казурински, Боб Голдтуэйт, Джордж Гейнс
    Сюжет фильма:Правительство заявило, что только одна из двух полицейских школ может продолжать свою работу. Начинается жестокое состязание на выживание — ни одна из академий не желает закрываться, в дело идут все средства.
    Махони, Хайтауэр, Тэклберри, Джонс, Хукс и Кэллагэн под командованием несгибаемого коменданта Лассарда, мобилизуют для спасения своей Альма Матер новую команду безнадежных рекрутов...

    Снималось в:USA
    Киностудия:Police Academy Productions, Warner Bros.
    Время просмотра:01:23:43
    Перевод текста:профессиональный (полное дублирование), профессиональный (многоголосый закадровый), профессиональный (двуголосый закадровый), авторский (одноголосый закадровый)
    Субтитры:русские, английские
    Файл
    Кодек для видео:MPEG-4 AVC/H.264
    Качество фильма:BDRip 720p
    Информация о видео:1276 x 720, (16:9), 10 500 kbps, 23.976 fps, 0.477 b/px
    Информация о звуке:
    Информация о звуке # 1:AC3, 2 ch, 192 kbps, 48 000 Hz Дублированный (Варус Видео)
    Информация о звуке # 2:DTS, 1 ch, 768 kbps, 48 000 Hz Двуголосый закадровый (Карусель)
    Информация о звуке # 3:АС3, 2 ch, 192 kbps, 48 000 Hz Двуголосый закадровый (НТВ)
    Информация о звуке # 4:АС3, 2 ch, 192 kbps, 48 000 Hz Двуголосый закадровый (Universal Channel)
    Информация о звуке # 5:DTS, 1 ch, 768 kbps, 48 000 Hz Одноголосый закадровый (А.Гаврилов)
    Информация о звуке # 6:АС3, 2 ch, 192 kbps, 48 000 Hz Одноголосый закадровый (Л.Володарский)
    Информация о звуке # 7:АС3, 2 ch, 192 kbps, 48 000 Hz Многоголосый закадровый (1+1) (Украинский)
    Информация о звуке # 8:DTS, 1 ch, 768 kbps, 48 000 Hz Оригинальный
    MediaInfo
    Общее
    Уникальный идентификатор : 191730142633434884459011130009052199984 (0x903DE1DE03F408CC9F44EEE926B33C30)
    Полное имя : E:Video-TorrentПолицейская академия. Антология BDRip 720p1986 Полицейская академия 3. Переподготовка BDRip 720p.mkv
    Формат : Matroska
    Версия формата : Version 4/Version 2
    Размер файла : 8,05 Гбайт
    Продолжительность : 1 ч. 23 м.
    Общий поток : 13,8 Мбит/сек
    Название фильма : Полицейская академия 3: Переподготовка/Police Academy 3: Back in Training (1986) BDRip 720p
    Дата кодирования : UTC 2014-10-28 09:55:45
    Программа кодирования : mkvmerge v7.2.0 (;On Every Street;) 32bit built on Sep 13 2014 15:42:11
    Библиотека кодирования : libebml v1.3.0 + libmatroska v1.4.1
    DURATION : 01:22:12.712000000
    NUMBER_OF_FRAMES : 1105
    NUMBER_OF_BYTES : 38960
    _STATISTICS_WRITING_APP : mkvmerge v7.2.0 (;On Every Street;) 32bit built on Sep 13 2014 15:42:11
    _STATISTICS_WRITING_DATE_UTC : 2014-10-28 09:55:45
    _STATISTICS_TAGS : BPS DURATION NUMBER_OF_FRAMES NUMBER_OF_BYTES
    Видео
    Идентификатор : 1
    Формат : AVC
    Формат/Информация : Advanced Video Codec
    Профиль формата : High@L4.1
    Параметр CABAC формата : Да
    Параметр ReFrames формата : 6 кадров
    Идентификатор кодека : V_MPEG4/ISO/AVC
    Продолжительность : 1 ч. 23 м.
    Битрейт : 10,5 Мбит/сек
    Ширина : 1276 пикселей
    Высота : 720 пикселей
    Соотношение сторон : 16:9
    Режим частоты кадров : Постоянный
    Частота кадров : 23,976 кадра/сек
    Цветовое пространство : YUV
    Субдискретизация насыщенности : 4:2:0
    Битовая глубина : 8 бит
    Тип развёртки : Прогрессивная
    Бит/(Пиксели*Кадры) : 0.477
    Размер потока : 5,98 Гбайт (74%)
    Заголовок : 1986 Полицейская академия 3. Переподготовка BDRip 720p
    Библиотека кодирования : x264 core 130 r2273 b3065e6
    Настройки программы : cabac=1/ref=6/deblock=1:-3:-3/analyse=0x3:0x133/me=umh/subme=11/psy=1/psy_rd=1.05:0.00/mixed_ref=1/me_range=48/chroma_me=1/trellis=2/8x8dct=1/cqm=0/deadzone=21,11/fast_pskip=0/chroma_qp_offset=-2/threads=12/lookahead_threads=2/sliced_threads=0/nr=0/decimate=1/interlaced=0/bluray_compat=0/constrained_intra=0/bframes=9/b_pyramid=2/b_adapt=2/b_bias=0/direct=3/weightb=1/open_gop=0/weightp=2/keyint=250/keyint_min=23/scenecut=40/intra_refresh=0/rc_lookahead=40/rc=2pass/mbtree=0/bitrate=10500/ratetol=1.0/qcomp=0.60/qpmin=0/qpmax=69/qpstep=4/cplxblur=20.0/qblur=0.5/vbv_maxrate=62500/vbv_bufsize=78125/nal_hrd=none/ip_ratio=1.40/pb_ratio=1.30/aq=1:0.80
    Язык : English
    Default : Да
    Forced : Нет
    DURATION : 01:23:43.727000000
    NUMBER_OF_FRAMES : 120449
    NUMBER_OF_BYTES : 6591223632
    _STATISTICS_WRITING_APP : mkvmerge v7.2.0 (;On Every Street;) 32bit built on Sep 13 2014 15:42:11
    _STATISTICS_WRITING_DATE_UTC : 2014-10-28 09:55:45
    _STATISTICS_TAGS : BPS DURATION NUMBER_OF_FRAMES NUMBER_OF_BYTES
    Аудио #1
    Идентификатор : 2
    Формат : AC-3
    Формат/Информация : Audio Coding 3
    Расширение режима : CM (complete main)
    Параметр Endianness формата : Big
    Идентификатор кодека : A_AC3
    Продолжительность : 1 ч. 23 м.
    Вид битрейта : Постоянный
    Битрейт : 192 Кбит/сек
    Каналы : 2 канала
    Расположение каналов : Front: L R
    Частота : 48,0 КГц
    Битовая глубина : 16 бит
    Метод сжатия : С потерями
    Размер потока : 115 Мбайт (1%)
    Заголовок : Дублированный Варус Видео
    Язык : Russian
    Default : Да
    Forced : Нет
    Аудио #2
    Идентификатор : 3
    Формат : DTS
    Формат/Информация : Digital Theater Systems
    Режим : 16
    Параметр Endianness формата : Big
    Идентификатор кодека : A_DTS
    Продолжительность : 1 ч. 23 м.
    Вид битрейта : Постоянный
    Битрейт : 768 Кбит/сек
    Каналы : 1 канал
    Расположение каналов : Front: C
    Частота : 48,0 КГц
    Битовая глубина : 24 бит
    Метод сжатия : С потерями
    Размер потока : 460 Мбайт (6%)
    Заголовок : Двуголосый закадровый Карусель
    Язык : Russian
    Default : Нет
    Forced : Нет
    Аудио #3
    Идентификатор : 4
    Формат : AC-3
    Формат/Информация : Audio Coding 3
    Расширение режима : CM (complete main)
    Параметр Endianness формата : Big
    Идентификатор кодека : A_AC3
    Продолжительность : 1 ч. 23 м.
    Вид битрейта : Постоянный
    Битрейт : 192 Кбит/сек
    Каналы : 2 канала
    Расположение каналов : Front: L R
    Частота : 48,0 КГц
    Битовая глубина : 16 бит
    Метод сжатия : С потерями
    Размер потока : 115 Мбайт (1%)
    Заголовок : Двуголосый закадровый НТВ
    Язык : Russian
    Default : Нет
    Forced : Нет
    Аудио #4
    Идентификатор : 5
    Формат : AC-3
    Формат/Информация : Audio Coding 3
    Расширение режима : CM (complete main)
    Параметр Endianness формата : Big
    Идентификатор кодека : A_AC3
    Продолжительность : 1 ч. 23 м.
    Вид битрейта : Постоянный
    Битрейт : 192 Кбит/сек
    Каналы : 2 канала
    Расположение каналов : Front: L R
    Частота : 48,0 КГц
    Битовая глубина : 16 бит
    Метод сжатия : С потерями
    Размер потока : 115 Мбайт (1%)
    Заголовок : Двуголосый закадровый Universal Channel
    Язык : Russian
    Default : Нет
    Forced : Нет
    Аудио #5
    Идентификатор : 6
    Формат : DTS
    Формат/Информация : Digital Theater Systems
    Режим : 16
    Параметр Endianness формата : Big
    Идентификатор кодека : A_DTS
    Продолжительность : 1 ч. 23 м.
    Вид битрейта : Постоянный
    Битрейт : 768 Кбит/сек
    Каналы : 1 канал
    Расположение каналов : Front: C
    Частота : 48,0 КГц
    Битовая глубина : 24 бит
    Метод сжатия : С потерями
    Размер потока : 460 Мбайт (6%)
    Заголовок : Одноголосый закадровый А.Гаврилов
    Язык : Russian
    Default : Нет
    Forced : Нет
    Аудио #6
    Идентификатор : 7
    Формат : AC-3
    Формат/Информация : Audio Coding 3
    Расширение режима : CM (complete main)
    Параметр Endianness формата : Big
    Идентификатор кодека : A_AC3
    Продолжительность : 1 ч. 23 м.
    Вид битрейта : Постоянный
    Битрейт : 192 Кбит/сек
    Каналы : 2 канала
    Расположение каналов : Front: L R
    Частота : 48,0 КГц
    Битовая глубина : 16 бит
    Метод сжатия : С потерями
    Размер потока : 115 Мбайт (1%)
    Заголовок : Одноголосый закадровый Л.Володарский
    Язык : Russian
    Default : Нет
    Forced : Нет
    Аудио #7
    Идентификатор : 8
    Формат : AC-3
    Формат/Информация : Audio Coding 3
    Расширение режима : CM (complete main)
    Параметр Endianness формата : Big
    Идентификатор кодека : A_AC3
    Продолжительность : 1 ч. 23 м.
    Вид битрейта : Постоянный
    Битрейт : 192 Кбит/сек
    Каналы : 2 канала
    Расположение каналов : Front: L R
    Частота : 48,0 КГц
    Битовая глубина : 16 бит
    Метод сжатия : С потерями
    Размер потока : 115 Мбайт (1%)
    Заголовок : Многоголосый закадровый 1+1
    Язык : Ukrainian
    Default : Нет
    Forced : Нет
    Аудио #8
    Идентификатор : 9
    Формат : DTS
    Формат/Информация : Digital Theater Systems
    Режим : 16
    Параметр Endianness формата : Big
    Идентификатор кодека : A_DTS
    Продолжительность : 1 ч. 23 м.
    Вид битрейта : Постоянный
    Битрейт : 768 Кбит/сек
    Каналы : 1 канал
    Расположение каналов : Front: C
    Частота : 48,0 КГц
    Битовая глубина : 24 бит
    Метод сжатия : С потерями
    Размер потока : 460 Мбайт (6%)
    Заголовок : Оригинальный
    Язык : English
    Default : Нет
    Forced : Нет
    Текст
    Идентификатор : 10
    Формат : UTF-8
    Идентификатор кодека : S_TEXT/UTF8
    Идентификатор кодека/Информация : UTF-8 Plain Text
    Заголовок : English
    Язык : English
    Default : Нет
    Forced : Нет
    Меню
    00:00:00.000 : en:00:00:00.000
    00:08:02.607 : en:00:08:02.607
    00:11:19.137 : en:00:11:19.137
    00:14:18.983 : en:00:14:18.983
    00:20:56.672 : en:00:20:56.672
    00:24:20.959 : en:00:24:20.959
    00:27:19.555 : en:00:27:19.555
    00:31:00.067 : en:00:31:00.067
    00:34:15.053 : en:00:34:15.053
    00:36:34.109 : en:00:36:34.109
    00:38:11.331 : en:00:38:11.331
    00:42:34.969 : en:00:42:34.969
    00:45:31.854 : en:00:45:31.854
    00:47:48.783 : en:00:47:48.783
    00:50:57.721 : en:00:50:57.721
    00:55:32.037 : en:00:55:32.037
    00:57:08.634 : en:00:57:08.634
    01:01:58.423 : en:01:01:58.423
    01:06:07.755 : en:01:06:07.755
    01:11:38.461 : en:01:11:38.461
    01:13:57.642 : en:01:13:57.642
    01:19:59.545 : en:01:19:59.545

    Скриншоты для ознакомления

    Полицейская академия 4: Граждане в дозоре/Police Academy 4: Citizens on Patrol (1987)

    Детально о кино
    Русское название:Полицейская академия 4: Граждане в дозоре
    Русское название в мировом прокате:Police Academy 4: Citizens on Patrol
    Создали в:1987
    Категория жанра:комедия, криминал
    Главный режиссер:Джим Дрейк
    Актеры:Стив Гуттенберг, Бубба Смит, Майкл Уинслоу, Дэвид Граф, Тим Казурински, Шэрон Стоун, Лесли Истербрук, Мэрион Рэмси, Лэнс Кинси, Дж. У. Бейли
    Сюжет фильма:Упрямый и предприимчивый Лассард решает усилить безопасность на улице с помощью создания добровольных дружин под названием Граждане на дежурстве. Угадайте, кто будет инструктировать обывателей? Верно, те же выпускники академии, что принимали неуд в своих зачетках за отличные отметки.
    Когда конкурент, лейтенант Харрис, наблюдает за этими упражнениями, он решает использовать их для дискредитации Академии. Но наши герои сложили свои коэффициенты умственного развития и поднялись в воздух на бипланах и воздушных шарах: кто-то должен спасать положение!..

    Снималось в:USA
    Киностудия:Warner Bros.
    Время просмотра:01:27:16
    Перевод текста:профессиональный (полное дублирование), профессиональный (многоголосый закадровый), профессиональный (двуголосый закадровый), авторский (одноголосый закадровый)
    Субтитры:английские
    Файл
    Кодек для видео:MPEG-4 AVC/H.264
    Качество фильма:BDRip 720p
    Информация о видео:1274 x 720, (16:9), 10 000 kbps, 23.976 fps, 0.455 b/px
    Информация о звуке:
    Информация о звуке # 1:AC3, 2 ch, 192 kbps, 48 000 Hz Дублированный (Варус Видео)
    Информация о звуке # 2:АС3, 2 ch, 192 kbps, 48 000 Hz Многоголосый закадровый (Россия)
    Информация о звуке # 3:АС3, 5 ch, 384 kbps, 48 000 Hz Многоголосый закадровый (Lazer Video)
    Информация о звуке # 4:DTS, 1 ch, 768 kbps, 48 000 Hz Двуголосый закадровый (Карусель)
    Информация о звуке # 5:АС3, 2 ch, 192 kbps, 48 000 Hz Двуголосый закадровый (НТВ)
    Информация о звуке # 6:DTS, 1 ch, 768 kbps, 48 000 Hz Одноголосый закадровый (А.Гаврилов позднняя версия)
    Информация о звуке # 7:АС3, 2 ch, 192 kbps, 48 000 Hz Одноголосый закадровый (А.Гаврилов ранняя версия)
    Информация о звуке # 8:АС3, 2 ch, 192 kbps, 48 000 Hz Многоголосый закадровый (1+1) (Украинский)
    Информация о звуке # 9:DTS, 1 ch, 768 kbps, 48 000 Hz Оригинальный
    MediaInfo
    Общее
    Уникальный идентификатор : 197986970902517244397846465872179490364 (0x94F2E75168F6AE449FB36D56B553EE3C)
    Полное имя : E:Video-TorrentПолицейская академия. Антология BDRip 720p1987 Полицейская академия 4. Граждане в дозоре BDRip 720p.mkv
    Формат : Matroska
    Версия формата : Version 4/Version 2
    Размер файла : 8,50 Гбайт
    Продолжительность : 1 ч. 27 м.
    Общий поток : 13,9 Мбит/сек
    Название фильма : Полицейская академия 4: Граждане в дозоре/Police Academy 4: Citizens on Patrol (1987) BDRip 720p
    Дата кодирования : UTC 2014-10-28 10:16:11
    Программа кодирования : mkvmerge v7.2.0 (;On Every Street;) 32bit built on Sep 13 2014 15:42:11
    Библиотека кодирования : libebml v1.3.0 + libmatroska v1.4.1
    DURATION : 01:26:06.828000000
    NUMBER_OF_FRAMES : 1056
    NUMBER_OF_BYTES : 37323
    _STATISTICS_WRITING_APP : mkvmerge v7.2.0 (;On Every Street;) 32bit built on Sep 13 2014 15:42:11
    _STATISTICS_WRITING_DATE_UTC : 2014-10-28 10:16:11
    _STATISTICS_TAGS : BPS DURATION NUMBER_OF_FRAMES NUMBER_OF_BYTES
    Видео
    Идентификатор : 1
    Формат : AVC
    Формат/Информация : Advanced Video Codec
    Профиль формата : High@L4.1
    Параметр CABAC формата : Да
    Параметр ReFrames формата : 9 кадров
    Идентификатор кодека : V_MPEG4/ISO/AVC
    Продолжительность : 1 ч. 27 м.
    Битрейт : 10,0 Мбит/сек
    Ширина : 1274 пикселя
    Высота : 720 пикселей
    Соотношение сторон : 16:9
    Режим частоты кадров : Постоянный
    Частота кадров : 23,976 кадра/сек
    Цветовое пространство : YUV
    Субдискретизация насыщенности : 4:2:0
    Битовая глубина : 8 бит
    Тип развёртки : Прогрессивная
    Бит/(Пиксели*Кадры) : 0.455
    Размер потока : 6,10 Гбайт (72%)
    Заголовок : 1987 Полицейская академия 4. Граждане в дозоре BDRip 720p
    Библиотека кодирования : x264 core 140 r2377 1ca7bb9
    Настройки программы : cabac=1/ref=9/deblock=1:-3:-3/analyse=0x3:0x133/me=umh/subme=10/psy=1/psy_rd=0.95:0.05/mixed_ref=1/me_range=32/chroma_me=1/trellis=2/8x8dct=1/cqm=0/deadzone=6,6/fast_pskip=0/chroma_qp_offset=-3/threads=9/lookahead_threads=1/sliced_threads=0/nr=0/decimate=0/interlaced=0/bluray_compat=0/constrained_intra=0/bframes=8/b_pyramid=2/b_adapt=2/b_bias=0/direct=3/weightb=1/open_gop=0/weightp=2/keyint=250/keyint_min=23/scenecut=40/intra_refresh=0/rc=crf/mbtree=0/crf=17.0/qcomp=0.70/qpmin=0/qpmax=40/qpstep=4/ip_ratio=1.30/pb_ratio=1.20/aq=1:0.75
    Язык : English
    Default : Да
    Forced : Нет
    Коэффициенты матрицы : BT.709
    DURATION : 01:27:16.690000000
    NUMBER_OF_FRAMES : 125555
    NUMBER_OF_BYTES : 6731336984
    _STATISTICS_WRITING_APP : mkvmerge v7.2.0 (;On Every Street;) 32bit built on Sep 13 2014 15:42:11
    _STATISTICS_WRITING_DATE_UTC : 2014-10-28 10:16:11
    _STATISTICS_TAGS : BPS DURATION NUMBER_OF_FRAMES NUMBER_OF_BYTES
    Аудио #1
    Идентификатор : 2
    Формат : AC-3
    Формат/Информация : Audio Coding 3
    Расширение режима : CM (complete main)
    Параметр Endianness формата : Big
    Идентификатор кодека : A_AC3
    Продолжительность : 1 ч. 27 м.
    Вид битрейта : Постоянный
    Битрейт : 192 Кбит/сек
    Каналы : 2 канала
    Расположение каналов : Front: L R
    Частота : 48,0 КГц
    Битовая глубина : 16 бит
    Метод сжатия : С потерями
    Размер потока : 120 Мбайт (1%)
    Заголовок : Дублированный Варус Видео
    Язык : Russian
    Default : Да
    Forced : Нет
    Аудио #2
    Идентификатор : 3
    Формат : AC-3
    Формат/Информация : Audio Coding 3
    Расширение режима : CM (complete main)
    Параметр Endianness формата : Big
    Идентификатор кодека : A_AC3
    Продолжительность : 1 ч. 27 м.
    Вид битрейта : Постоянный
    Битрейт : 192 Кбит/сек
    Каналы : 2 канала
    Расположение каналов : Front: L R
    Частота : 48,0 КГц
    Битовая глубина : 16 бит
    Метод сжатия : С потерями
    Размер потока : 120 Мбайт (1%)
    Заголовок : Многоголосый закадровый Россия
    Язык : Russian
    Default : Нет
    Forced : Нет
    Аудио #3
    Идентификатор : 4
    Формат : AC-3
    Формат/Информация : Audio Coding 3
    Расширение режима : CM (complete main)
    Параметр Endianness формата : Big
    Идентификатор кодека : A_AC3
    Продолжительность : 1 ч. 27 м.
    Вид битрейта : Постоянный
    Битрейт : 384 Кбит/сек
    Каналы : 5 каналов
    Расположение каналов : Front: L C R, Side: L R
    Частота : 48,0 КГц
    Битовая глубина : 16 бит
    Метод сжатия : С потерями
    Размер потока : 240 Мбайт (3%)
    Заголовок : Многоголосый закадровый Lazer Video
    Язык : Russian
    Default : Нет
    Forced : Нет
    Аудио #4
    Идентификатор : 5
    Формат : DTS
    Формат/Информация : Digital Theater Systems
    Режим : 16
    Параметр Endianness формата : Big
    Идентификатор кодека : A_DTS
    Продолжительность : 1 ч. 27 м.
    Вид битрейта : Постоянный
    Битрейт : 768 Кбит/сек
    Каналы : 1 канал
    Расположение каналов : Front: C
    Частота : 48,0 КГц
    Битовая глубина : 24 бит
    Метод сжатия : С потерями
    Размер потока : 480 Мбайт (6%)
    Заголовок : Двуголосый закадровый Карусель
    Язык : Russian
    Default : Нет
    Forced : Нет
    Аудио #5
    Идентификатор : 6
    Формат : AC-3
    Формат/Информация : Audio Coding 3
    Расширение режима : CM (complete main)
    Параметр Endianness формата : Big
    Идентификатор кодека : A_AC3
    Продолжительность : 1 ч. 27 м.
    Вид битрейта : Постоянный
    Битрейт : 192 Кбит/сек
    Каналы : 2 канала
    Расположение каналов : Front: L R
    Частота : 48,0 КГц
    Битовая глубина : 16 бит
    Метод сжатия : С потерями
    Размер потока : 120 Мбайт (1%)
    Заголовок : Двуголосый закадровый НТВ
    Язык : Russian
    Default : Нет
    Forced : Нет
    Аудио #6
    Идентификатор : 7
    Формат : DTS
    Формат/Информация : Digital Theater Systems
    Режим : 16
    Параметр Endianness формата : Big
    Идентификатор кодека : A_DTS
    Продолжительность : 1 ч. 27 м.
    Вид битрейта : Постоянный
    Битрейт : 768 Кбит/сек
    Каналы : 1 канал
    Расположение каналов : Front: C
    Частота : 48,0 КГц
    Битовая глубина : 24 бит
    Метод сжатия : С потерями
    Размер потока : 480 Мбайт (6%)
    Заголовок : Одноголосый закадровый А.Гаврилов позднняя версия
    Язык : Russian
    Default : Нет
    Forced : Нет
    Аудио #7
    Идентификатор : 8
    Формат : AC-3
    Формат/Информация : Audio Coding 3
    Расширение режима : CM (complete main)
    Параметр Endianness формата : Big
    Идентификатор кодека : A_AC3
    Продолжительность : 1 ч. 27 м.
    Вид битрейта : Постоянный
    Битрейт : 192 Кбит/сек
    Каналы : 2 канала
    Расположение каналов : Front: L R
    Частота : 48,0 КГц
    Битовая глубина : 16 бит
    Метод сжатия : С потерями
    Размер потока : 120 Мбайт (1%)
    Заголовок : Одноголосый закадровый А.Гаврилов ранняя версия
    Язык : Russian
    Default : Нет
    Forced : Нет
    Аудио #8
    Идентификатор : 9
    Формат : AC-3
    Формат/Информация : Audio Coding 3
    Расширение режима : CM (complete main)
    Параметр Endianness формата : Big
    Идентификатор кодека : A_AC3
    Продолжительность : 1 ч. 27 м.
    Вид битрейта : Постоянный
    Битрейт : 192 Кбит/сек
    Каналы : 2 канала
    Расположение каналов : Front: L R
    Частота : 48,0 КГц
    Битовая глубина : 16 бит
    Метод сжатия : С потерями
    Размер потока : 120 Мбайт (1%)
    Заголовок : Многоголосый закадровый 1+1
    Язык : Ukrainian
    Default : Нет
    Forced : Нет
    Аудио #9
    Идентификатор : 10
    Формат : DTS
    Формат/Информация : Digital Theater Systems
    Режим : 16
    Параметр Endianness формата : Big
    Идентификатор кодека : A_DTS
    Продолжительность : 1 ч. 27 м.
    Вид битрейта : Постоянный
    Битрейт : 768 Кбит/сек
    Каналы : 1 канал
    Расположение каналов : Front: C
    Частота : 48,0 КГц
    Битовая глубина : 24 бит
    Метод сжатия : С потерями
    Размер потока : 480 Мбайт (6%)
    Заголовок : Оригинальный
    Язык : English
    Default : Нет
    Forced : Нет
    Текст
    Идентификатор : 11
    Формат : UTF-8
    Идентификатор кодека : S_TEXT/UTF8
    Идентификатор кодека/Информация : UTF-8 Plain Text
    Заголовок : English
    Язык : English
    Default : Нет
    Forced : Нет
    Меню
    00:00:00.000 : en:00:00:00.000
    00:07:20.148 : en:00:07:20.148
    00:10:17.992 : en:00:10:17.992
    00:12:32.877 : en:00:12:32.877
    00:16:17.101 : en:00:16:17.101
    00:21:10.227 : en:00:21:10.227
    00:23:19.231 : en:00:23:19.231
    00:28:10.147 : en:00:28:10.147
    00:32:52.929 : en:00:32:52.929
    00:36:14.506 : en:00:36:14.506
    00:40:37.310 : en:00:40:37.310
    00:43:59.095 : en:00:43:59.095
    00:47:57.416 : en:00:47:57.416
    00:53:44.471 : en:00:53:44.471
    00:56:29.928 : en:00:56:29.928
    00:58:49.234 : en:00:58:49.234
    01:00:35.465 : en:01:00:35.465
    01:03:19.004 : en:01:03:19.004
    01:05:17.831 : en:01:05:17.831
    01:08:01.577 : en:01:08:01.577
    01:10:34.522 : en:01:10:34.522
    01:21:30.469 : en:01:21:30.469

    Скриншоты для ознакомления

    Полицейская академия 5: Место назначения – Майами Бич/Police Academy 5: Assignment: Miami Beach (1988)

    Детально о кино
    Русское название:Полицейская академия 5: Место назначения – Майами Бич
    Русское название в мировом прокате:Police Academy 5: Assignment: Miami Beach
    Создали в:1988
    Категория жанра:комедия, криминал
    Главный режиссер:Алан Майерсон
    Актеры:Бубба Смит, Дэвид Граф, Майкл Уинслоу, Лесли Истербрук, Мэрион Рэмси, Джанет Джонс, Лэнс Кинси, Мэтт МакКой, Дж. У. Бейли, Джордж Гейнс
    Сюжет фильма:Солнце, веселье и красивые девушки. Где всему этому быть, как не в Майами Бич? На этом пятом празднике смеха наши герои летят в Майами на чествование любимого коменданта Лассарда. Но у преступников не бывает отпусков, когда отдыхают наши любимые полицейские.
    Лассард похищен. И даже соблазнительные пляжные вечеринки не смогут отвлечь наших неистовых бойцов от отчаянной попытки спасения заложника...

    Снималось в:USA
    Киностудия:Warner Bros.
    Время просмотра:01:29:50
    Перевод текста:профессиональный (полное дублирование), профессиональный (многоголосый закадровый), профессиональный (двуголосый закадровый), авторский (одноголосый закадровый)
    Субтитры:английские
    Файл
    Кодек для видео:MPEG-4 AVC/H.264
    Качество фильма:BDRip 720p
    Информация о видео:1280 x 720, (16:9), 9 435 kbps, 23.976 fps, 0.427 b/px
    Информация о звуке:
    Информация о звуке # 1:AC3, 2 ch, 192 kbps, 48 000 Hz Дублированный (Варус Видео)
    Информация о звуке # 2:АС3, 2 ch, 192 kbps, 48 000 Hz Многоголосый закадровый (Россия)
    Информация о звуке # 3:АС3, 5 ch, 384 kbps, 48 000 Hz Многоголосый закадровый (Lazer Video)
    Информация о звуке # 4:DTS, 1 ch, 768 kbps, 48 000 Hz Двуголосый закадровый (Карусель)
    Информация о звуке # 5:АС3, 2 ch, 192 kbps, 48 000 Hz Двуголосый закадровый (НТВ)
    Информация о звуке # 6:DTS, 1 ch, 768 kbps, 48 000 Hz Одноголосый закадровый (А.Михалев)
    Информация о звуке # 7:АС3, 2 ch, 192 kbps, 48 000 Hz Многоголосый закадровый (1+1) (Украинский)
    Информация о звуке # 8:DTS, 1 ch, 768 kbps, 48 000 Hz Оригинальный
    MediaInfo
    Общее
    Уникальный идентификатор : 225424442297469451354245754839134926161 (0xA9972B19C16D6C088CCD72D1A9A07551)
    Полное имя : E:Video-TorrentПолицейская академия. Антология BDRip 720p1988 Полицейская академия 5. Место назначения – Майами Бич BDRip 720p.mkv
    Формат : Matroska
    Версия формата : Version 4/Version 2
    Размер файла : 8,26 Гбайт
    Продолжительность : 1 ч. 29 м.
    Общий поток : 13,2 Мбит/сек
    Название фильма : Полицейская академия 5: Место назначения – Майами Бич/Police Academy 5: Assignment: Miami Beach (1988) BDRip 720p
    Дата кодирования : UTC 2014-10-28 10:32:02
    Программа кодирования : mkvmerge v7.2.0 (;On Every Street;) 32bit built on Sep 13 2014 15:42:11
    Библиотека кодирования : libebml v1.3.0 + libmatroska v1.4.1
    DURATION : 01:28:52.285000000
    NUMBER_OF_FRAMES : 1208
    NUMBER_OF_BYTES : 42573
    _STATISTICS_WRITING_APP : mkvmerge v7.2.0 (;On Every Street;) 32bit built on Sep 13 2014 15:42:11
    _STATISTICS_WRITING_DATE_UTC : 2014-10-28 10:32:02
    _STATISTICS_TAGS : BPS DURATION NUMBER_OF_FRAMES NUMBER_OF_BYTES
    Видео
    Идентификатор : 1
    Формат : AVC
    Формат/Информация : Advanced Video Codec
    Профиль формата : High@L4.1
    Параметр CABAC формата : Да
    Параметр ReFrames формата : 9 кадров
    Идентификатор кодека : V_MPEG4/ISO/AVC
    Продолжительность : 1 ч. 29 м.
    Битрейт : 9435 Кбит/сек
    Ширина : 1280 пикселей
    Высота : 720 пикселей
    Соотношение сторон : 16:9
    Режим частоты кадров : Постоянный
    Частота кадров : 23,976 кадра/сек
    Цветовое пространство : YUV
    Субдискретизация насыщенности : 4:2:0
    Битовая глубина : 8 бит
    Тип развёртки : Прогрессивная
    Бит/(Пиксели*Кадры) : 0.427
    Размер потока : 5,92 Гбайт (72%)
    Заголовок : 1988 Полицейская академия 5. Место назначения – Майами Бич BDRip 720p
    Библиотека кодирования : x264 core 140 r2377 1ca7bb9
    Настройки программы : cabac=1/ref=9/deblock=1:-3:-3/analyse=0x3:0x133/me=umh/subme=10/psy=1/psy_rd=0.95:0.05/mixed_ref=1/me_range=32/chroma_me=1/trellis=2/8x8dct=1/cqm=0/deadzone=6,6/fast_pskip=0/chroma_qp_offset=-3/threads=9/lookahead_threads=1/sliced_threads=0/nr=0/decimate=0/interlaced=0/bluray_compat=0/constrained_intra=0/bframes=8/b_pyramid=2/b_adapt=2/b_bias=0/direct=3/weightb=1/open_gop=0/weightp=2/keyint=250/keyint_min=23/scenecut=40/intra_refresh=0/rc=crf/mbtree=0/crf=17.0/qcomp=0.70/qpmin=0/qpmax=40/qpstep=4/ip_ratio=1.30/pb_ratio=1.20/aq=1:0.75
    Язык : English
    Default : Да
    Forced : Нет
    Коэффициенты матрицы : BT.709
    DURATION : 01:29:50.719000000
    NUMBER_OF_FRAMES : 129248
    NUMBER_OF_BYTES : 6531585167
    _STATISTICS_WRITING_APP : mkvmerge v7.2.0 (;On Every Street;) 32bit built on Sep 13 2014 15:42:11
    _STATISTICS_WRITING_DATE_UTC : 2014-10-28 10:32:02
    _STATISTICS_TAGS : BPS DURATION NUMBER_OF_FRAMES NUMBER_OF_BYTES
    Аудио #1
    Идентификатор : 2
    Формат : AC-3
    Формат/Информация : Audio Coding 3
    Расширение режима : CM (complete main)
    Параметр Endianness формата : Big
    Идентификатор кодека : A_AC3
    Продолжительность : 1 ч. 29 м.
    Вид битрейта : Постоянный
    Битрейт : 192 Кбит/сек
    Каналы : 2 канала
    Расположение каналов : Front: L R
    Частота : 48,0 КГц
    Битовая глубина : 16 бит
    Метод сжатия : С потерями
    Размер потока : 123 Мбайт (1%)
    Заголовок : Дублированный Варус Видео
    Язык : Russian
    Default : Да
    Forced : Нет
    Аудио #2
    Идентификатор : 3
    Формат : AC-3
    Формат/Информация : Audio Coding 3
    Расширение режима : CM (complete main)
    Параметр Endianness формата : Big
    Идентификатор кодека : A_AC3
    Продолжительность : 1 ч. 29 м.
    Вид битрейта : Постоянный
    Битрейт : 192 Кбит/сек
    Каналы : 2 канала
    Расположение каналов : Front: L R
    Частота : 48,0 КГц
    Битовая глубина : 16 бит
    Метод сжатия : С потерями
    Размер потока : 123 Мбайт (1%)
    Заголовок : Многоголосый закадровый Россия
    Язык : Russian
    Default : Нет
    Forced : Нет
    Аудио #3
    Идентификатор : 4
    Формат : AC-3
    Формат/Информация : Audio Coding 3
    Расширение режима : CM (complete main)
    Параметр Endianness формата : Big
    Идентификатор кодека : A_AC3
    Продолжительность : 1 ч. 29 м.
    Вид битрейта : Постоянный
    Битрейт : 384 Кбит/сек
    Каналы : 5 каналов
    Расположение каналов : Front: L C R, Side: L R
    Частота : 48,0 КГц
    Битовая глубина : 16 бит
    Метод сжатия : С потерями
    Размер потока : 247 Мбайт (3%)
    Заголовок : Многоголосый закадровый Lazer Video
    Язык : Russian
    Default : Нет
    Forced : Нет
    Аудио #4
    Идентификатор : 5
    Формат : DTS
    Формат/Информация : Digital Theater Systems
    Режим : 16
    Параметр Endianness формата : Big
    Идентификатор кодека : A_DTS
    Продолжительность : 1 ч. 29 м.
    Вид битрейта : Постоянный
    Битрейт : 768 Кбит/сек
    Каналы : 1 канал
    Расположение каналов : Front: C
    Частота : 48,0 КГц
    Битовая глубина : 24 бит
    Метод сжатия : С потерями
    Размер потока : 494 Мбайт (6%)
    Заголовок : Двуголосый закадровый Карусель
    Язык : Russian
    Default : Нет
    Forced : Нет
    Аудио #5
    Идентификатор : 6
    Формат : AC-3
    Формат/Информация : Audio Coding 3
    Расширение режима : CM (complete main)
    Параметр Endianness формата : Big
    Идентификатор кодека : A_AC3
    Продолжительность : 1 ч. 29 м.
    Вид битрейта : Постоянный
    Битрейт : 192 Кбит/сек
    Каналы : 2 канала
    Расположение каналов : Front: L R
    Частота : 48,0 КГц
    Битовая глубина : 16 бит
    Метод сжатия : С потерями
    Размер потока : 123 Мбайт (1%)
    Заголовок : Двуголосый закадровый НТВ
    Язык : Russian
    Default : Нет
    Forced : Нет
    Аудио #6
    Идентификатор : 7
    Формат : DTS
    Формат/Информация : Digital Theater Systems
    Режим : 16
    Параметр Endianness формата : Big
    Идентификатор кодека : A_DTS
    Продолжительность : 1 ч. 29 м.
    Вид битрейта : Постоянный
    Битрейт : 768 Кбит/сек
    Каналы : 1 канал
    Расположение каналов : Front: C
    Частота : 48,0 КГц
    Битовая глубина : 24 бит
    Метод сжатия : С потерями
    Размер потока : 494 Мбайт (6%)
    Заголовок : Одноголосый закадровый А.Михалев
    Язык : Russian
    Default : Нет
    Forced : Нет
    Аудио #7
    Идентификатор : 8
    Формат : AC-3
    Формат/Информация : Audio Coding 3
    Расширение режима : CM (complete main)
    Параметр Endianness формата : Big
    Идентификатор кодека : A_AC3
    Продолжительность : 1 ч. 29 м.
    Вид битрейта : Постоянный
    Битрейт : 192 Кбит/сек
    Каналы : 2 канала
    Расположение каналов : Front: L R
    Частота : 48,0 КГц
    Битовая глубина : 16 бит
    Метод сжатия : С потерями
    Размер потока : 123 Мбайт (1%)
    Заголовок : Многоголосый закадровый 1+1
    Язык : Ukrainian
    Default : Нет
    Forced : Нет
    Аудио #8
    Идентификатор : 9
    Формат : DTS
    Формат/Информация : Digital Theater Systems
    Режим : 16
    Параметр Endianness формата : Big
    Идентификатор кодека : A_DTS
    Продолжительность : 1 ч. 29 м.
    Вид битрейта : Постоянный
    Битрейт : 768 Кбит/сек
    Каналы : 1 канал
    Расположение каналов : Front: C
    Частота : 48,0 КГц
    Битовая глубина : 24 бит
    Метод сжатия : С потерями
    Размер потока : 494 Мбайт (6%)
    Заголовок : Оригинальный
    Язык : English
    Default : Нет
    Forced : Нет
    Текст
    Идентификатор : 10
    Формат : UTF-8
    Идентификатор кодека : S_TEXT/UTF8
    Идентификатор кодека/Информация : UTF-8 Plain Text
    Заголовок : English
    Язык : English
    Default : Нет
    Forced : Нет
    Меню
    00:00:00.000 : en:00:00:00.000
    00:05:50.517 : en:00:05:50.517
    00:10:07.857 : en:00:10:07.857
    00:15:19.752 : en:00:15:19.752
    00:17:33.052 : en:00:17:33.052
    00:21:19.570 : en:00:21:19.570
    00:27:07.459 : en:00:27:07.459
    00:32:01.294 : en:00:32:01.294
    00:36:21.805 : en:00:36:21.805
    00:41:42.750 : en:00:41:42.750
    00:45:20.092 : en:00:45:20.092
    00:47:52.912 : en:00:47:52.912
    00:50:10.966 : en:00:50:10.966
    00:56:19.835 : en:00:56:19.835
    00:57:35.494 : en:00:57:35.494
    01:03:58.209 : en:01:03:58.209
    01:10:54.750 : en:01:10:54.750
    01:15:23.769 : en:01:15:23.769
    01:20:02.256 : en:01:20:02.256
    01:21:52.116 : en:01:21:52.116
    01:24:12.005 : en:01:24:12.005
    01:27:18.733 : en:01:27:18.733

    Скриншоты для ознакомления

    Полицейская академия 6: Город в осаде/Police Academy 6: City Under Siege (1989)

    Детально о кино
    Русское название:Полицейская академия 6: Город в осаде
    Русское название в мировом прокате:Police Academy 6: City Under Siege
    Создали в:1989
    Категория жанра:комедия, криминал
    Главный режиссер:Питер Бонерз
    Актеры:Бубба Смит, Дэвид Граф, Майкл Уинслоу, Лесли Истербрук, Мэрион Рэмси, Лэнс Кинси, Мэтт МакКой, Брюс Малер, Дж. У. Бейли, Джордж Гейнс
    Сюжет фильма:Вспышка криминальной активности под кодовым названием Операция Хаос может потребовать занавеса для ничего не подозревающего города. Лучшие полицейские специалисты из знаменитой Полицейской Академии взялись за дело...

    Снималось в:USA
    Киностудия:Warner Bros.
    Время просмотра:01:23:55
    Перевод текста:профессиональный (полное дублирование), профессиональный (многоголосый закадровый), профессиональный (двуголосый закадровый), авторский (одноголосый закадровый)
    Субтитры:английские
    Файл
    Кодек для видео:MPEG-4 AVC/H.264
    Качество фильма:BDRip 720p
    Информация о видео:1280 x 720, (16:9), 10 700 kbps, 23.976 fps, 0.485 b/px
    Информация о звуке:
    Информация о звуке # 1:AC3, 2 ch, 192 kbps, 48 000 Hz Дублированный (Варус Видео)
    Информация о звуке # 2:АС3, 5 ch, 384 kbps, 48 000 Hz Многоголосый закадровый (Lazer Video)
    Информация о звуке # 3:DTS, 1 ch, 768 kbps, 48 000 Hz Двуголосый закадровый (Карусель)
    Информация о звуке # 4:АС3, 2 ch, 192 kbps, 48 000 Hz Двуголосый закадровый (НТВ)
    Информация о звуке # 5:DTS, 1 ch, 768 kbps, 48 000 Hz Одноголосый закадровый (А.Гаврилов)
    Информация о звуке # 6:АС3, 2 ch, 192 kbps, 48 000 Hz Одноголосый закадровый (Л.Володарский)
    Информация о звуке # 7:АС3, 2 ch, 192 kbps, 48 000 Hz Одноголосый закадровый (Wizard)
    Информация о звуке # 8:АС3, 2 ch, 192 kbps, 48 000 Hz Многоголосый закадровый (1+1) (Украинский)
    Информация о звуке # 9:DTS, 1 ch, 768 kbps, 48 000 Hz Оригинальный
    MediaInfo
    codeОбщее
    Уникальный идентификатор : 232414316822641820394123585477814775967 (0xAED95E85AE364E41AD6ACF0721F3F09F)
    По
    загрузка...
    Рейтинг →
     (голосов: 1, оценка 3/5, голосовать можно 1 раз )

    Другие торренты по теме:

  • Полицейская академия 2: Их первое задание / Police Academy 2: Their First Assignment (1985) HDRip от Scarabey | D
  • Полицейская академия 3: Переподготовка / Police Academy 3: Back in Training (1986) BDRip 1080р | D, P, A от Freeisland
  • Полицейская академия 4: Граждане в дозоре / Police Academy 4: Citizens on Patrol (1987) BDRip 1080р | D, P, A от Freeisland скачать через торрент бесплатно
  • Полицейская академия 5: Место назначения – Майами Бич / Police Academy 5: Assignment: Miami Beach (1988) BDRip 1080р | D, P, A от Freeisland скачать через торрент бесплатно
  • Полицейская академия 3: Переподготовка / Police Academy 3: Back in Training (1986) BDRip 720p от MediaClub | D, P, A
  • Полицейская академия 6: Город в осаде / Police Academy 6: City Under Siege (1989) BDRip 1080р | D, P, A от Freeisland
  • Полицейская академия 5: Место назначения - Майами Бич / Police Academy 5: Assignment: Miami Beach (1988) BDRip 720p от MediaClub | D, P, A
  • Полицейская академия 4: Граждане в дозоре / Police Academy 4: Citizens on Patrol (1987) BDRip 720p от MediaClub | D, P, A скачать через торрент бесплатно


    • Комментарии (0):

      Информация

      Информация

        Посетители, находящиеся в группе Гости, не могут оставлять комментарии в данной новости.

        ↓ Меню



        ↓ Опрос

        А Вы добавили сайт в закладки?
        Да
        Не


        Top 10 за месяц (Фильмы)