.
Авторизация | Регистрация
Хочешь лучшие торренты? Добавь свой email!
Добавить
» » Зачётный препод / Fack ju Ghte (2013) HDRip-AVC от АРХАНГЕЛ | L1, A скачать через торрент бесплатно




    Зачётный препод / Fack ju Ghte (2013) HDRip-AVC от АРХАНГЕЛ | L1, A скачать через торрент бесплатно

    Опубликовал: Админ | Дата: 27-02-2015, 11:10 | Просмотров: 201


    Детально о кино
    Русское название:Зачётный препод
    Русское название в мировом прокате:Fack ju G?hte
    Создали в:2013
    Категория жанра:комедия
    Главный режиссер:Бора Дагтекин
    Актеры:Элиас ЭмБарек, Каролина Херфурт, Катя Риман, Яна Палласке, Алвара Хёфельс, Йелла Хаазе, Макс фон Гробен, Анна-Лена Кленке, Гизем Эмре…
    Сюжет фильма:
    Незадачливый грабитель банков Зеки Мюллер после тринадцати месяцев отсидки выходит из тюрьмы. Он отправляется на поиски награбленной добычи, которая была спрятана на стройке. Вместе с подружкой они думали, что там идёт всего-навсего прокладка труб. Каково же удивление горе-грабителя, когда он обнаруживает на нужном месте новенький школьный спортзал!
    Чтобы добраться до награбленного, Зеки пытается устроиться на место школьного сторожа. Но в результате лёгкого недопонимания вместо этого его берут в качестве учителя на замену. Ему достаётся самый буйный и ненормальный класс во всей школе — 10 Б. Используя несколько необычные методы, бывший грабитель неожиданно находит общий язык с учениками. Одновременно с этим по ночам он пытается добраться до спрятанной добычи и влюбляется в коллегу-учительницу Лиси.

    Снималось в:Германия /
    Киностудия:Constantin Film Produktion GmbH, Rat Pack Filmproduktion GmbH
    Время просмотра:01:57:08
    Перевод текста:Любительский (одноголосый закадровый) -В. Данилов (VirusProject), Авторский (одноголосый закадровый) –М. Яроцкий (Ненормативная лексика)
    Файл
    Кодек для видео:h.264 (MKV)
    Качество фильма:HDRip-AVC
    Информация о видео:AVC, 1024 x 432, ~2 009 Kbps
    Информация о звуке:Russian В. Данилов (VirusProject): AC-3, 6 ch, 384 Kbps/Russian М. Яроцкий, German: AC-3, 6 ch, 512 Kbps/German Commentary #1, #2, #3: AC-3, 2 ch, 192 Kbps
    Субтитры:Russian, English, German
    Запрещен к просмотру, лицам младше 18 лет!
    Семпл
    Цитата

    Сохранены оригинальные чаптеры как на Blu-ray.
    Озвучка #1 выполнена по переводу Марии Игнатовой aka mig_88, сведение звука: viruse (Виталий Емельянов).
    Перевод М.Яроцкого доступен благодаряwhip93, MrRose, будулайроманов, dikii. Внимание!!! В переводе содержится ненормативная лексика.
    За русские субтитры спасиболорди74.
    Скриншоты для ознакомления
    MediaInfo
    General
    Unique ID : 193053600567027508313307045892145960029 (0x913CC5619779585EABEB1407F4DE545D)
    Complete name : D: Fack.ju.Goehte.2013.HDRip-AVC.mkv
    Format : Matroska
    Format version : Version 4/Version 2
    File size : 3.33 GiB
    Duration : 1h 57mn
    Overall bit rate : 4 075 Kbps
    Movie name : Fack ju Goehte (2013) - Release for HDCLUB by LexxBlack
    Encoded date : UTC 2014-10-29 08:20:40
    Writing application : mkvmerge v7.2.0 (;On Every Street;) 64bit built on Sep 13 2014 15:52:10
    Writing library : libebml v1.3.0 + libmatroska v1.4.1
    DURATION : 01:48:49.667000000
    NUMBER_OF_FRAMES : 1430
    NUMBER_OF_BYTES : 86879
    _STATISTICS_WRITING_APP : mkvmerge v7.2.0 (;On Every Street;) 64bit built on Sep 13 2014 15:52:10
    _STATISTICS_WRITING_DATE_UTC : 2014-10-29 08:20:40
    _STATISTICS_TAGS : BPS DURATION NUMBER_OF_FRAMES NUMBER_OF_BYTES
    Video
    ID : 1
    Format : AVC
    Format/Info : Advanced Video Codec
    Format profile : Main@L4.1
    Format settings, CABAC : Yes
    Format settings, ReFrames : 4 frames
    Codec ID : V_MPEG4/ISO/AVC
    Duration : 1h 57mn
    Bit rate : 2 009 Kbps
    Width : 1 024 pixels
    Height : 432 pixels
    Display aspect ratio : 2.40:1
    Frame rate mode : Constant
    Frame rate : 24.000 fps
    Color space : YUV
    Chroma subsampling : 4:2:0
    Bit depth : 8 bits
    Scan type : Progressive
    Bits/(Pixel*Frame) : 0.189
    Stream size : 1.64 GiB (49%)
    Language : English
    Default : Yes
    Forced : No
    Audio #1
    ID : 2
    Format : AC-3
    Format/Info : Audio Coding 3
    Mode extension : CM (complete main)
    Format settings, Endianness : Big
    Codec ID : A_AC3
    Duration : 1h 57mn
    Bit rate mode : Constant
    Bit rate : 384 Kbps
    Channel(s) : 6 channels
    Channel positions : Front: L C R, Side: L R, LFE
    Sampling rate : 48.0 KHz
    Bit depth : 16 bits
    Compression mode : Lossy
    Stream size : 322 MiB (9%)
    Title : Одноголосый закадровый, В. Данилов (VirusProject)
    Language : Russian
    Default : Yes
    Forced : No
    Audio #2
    ID : 3
    Format : AC-3
    Format/Info : Audio Coding 3
    Mode extension : CM (complete main)
    Format settings, Endianness : Big
    Codec ID : A_AC3
    Duration : 1h 57mn
    Bit rate mode : Constant
    Bit rate : 512 Kbps
    Channel(s) : 6 channels
    Channel positions : Front: L C R, Side: L R, LFE
    Sampling rate : 48.0 KHz
    Bit depth : 16 bits
    Compression mode : Lossy
    Stream size : 429 MiB (13%)
    Title : Одноголосый закадровый, М. Яроцкий (Ненормативная лексика)
    Language : Russian
    Default : No
    Forced : No
    Audio #3
    ID : 4
    Format : AC-3
    Format/Info : Audio Coding 3
    Mode extension : CM (complete main)
    Format settings, Endianness : Big
    Codec ID : A_AC3
    Duration : 1h 57mn
    Bit rate mode : Constant
    Bit rate : 512 Kbps
    Channel(s) : 6 channels
    Channel positions : Front: L C R, Side: L R, LFE
    Sampling rate : 48.0 KHz
    Bit depth : 16 bits
    Compression mode : Lossy
    Stream size : 429 MiB (13%)
    Title : Оригинал
    Language : German
    Default : No
    Forced : No
    Audio #4
    ID : 5
    Format : AC-3
    Format/Info : Audio Coding 3
    Mode extension : CM (complete main)
    Format settings, Endianness : Big
    Codec ID : A_AC3
    Duration : 1h 57mn
    Bit rate mode : Constant
    Bit rate : 192 Kbps
    Channel(s) : 2 channels
    Channel positions : Front: L R
    Sampling rate : 48.0 KHz
    Bit depth : 16 bits
    Compression mode : Lossy
    Stream size : 161 MiB (5%)
    Title : Commentary #1
    Language : German
    Default : No
    Forced : No
    Audio #5
    ID : 6
    Format : AC-3
    Format/Info : Audio Coding 3
    Mode extension : CM (complete main)
    Format settings, Endianness : Big
    Codec ID : A_AC3
    Duration : 1h 57mn
    Bit rate mode : Constant
    Bit rate : 192 Kbps
    Channel(s) : 2 channels
    Channel positions : Front: L R
    Sampling rate : 48.0 KHz
    Bit depth : 16 bits
    Compression mode : Lossy
    Stream size : 161 MiB (5%)
    Title : Commentary #2
    Language : German
    Default : No
    Forced : No
    Audio #6
    ID : 7
    Format : AC-3
    Format/Info : Audio Coding 3
    Mode extension : CM (complete main)
    Format settings, Endianness : Big
    Codec ID : A_AC3
    Duration : 1h 57mn
    Bit rate mode : Constant
    Bit rate : 192 Kbps
    Channel(s) : 2 channels
    Channel positions : Front: L R
    Sampling rate : 48.0 KHz
    Bit depth : 16 bits
    Compression mode : Lossy
    Stream size : 161 MiB (5%)
    Title : Commentary #3
    Language : German
    Default : No
    Forced : No
    Text #1
    ID : 8
    Format : UTF-8
    Codec ID : S_TEXT/UTF8
    Codec ID/Info : UTF-8 Plain Text
    Title : Full
    Language : Russian
    Default : No
    Forced : No
    Text #2
    ID : 9
    Format : UTF-8
    Codec ID : S_TEXT/UTF8
    Codec ID/Info : UTF-8 Plain Text
    Title : Full
    Language : English
    Default : No
    Forced : No
    Text #3
    ID : 10
    Format : UTF-8
    Codec ID : S_TEXT/UTF8
    Codec ID/Info : UTF-8 Plain Text
    Title : Full
    Language : German
    Default : No
    Forced : No
    Menu
    00:00:00.000 : de:00:00:00.000
    00:05:23.125 : de:00:05:23.125
    00:11:24.625 : de:00:11:24.625
    00:17:38.163 : de:00:17:38.163
    00:21:14.913 : de:00:21:14.913
    00:26:57.788 : de:00:26:57.788
    00:33:51.163 : de:00:33:51.163
    00:39:11.666 : de:00:39:11.666
    00:43:54.708 : de:00:43:54.708
    00:49:57.083 : de:00:49:57.083
    00:55:18.875 : de:00:55:18.875
    01:02:29.166 : de:01:02:29.166
    01:08:21.875 : de:01:08:21.875
    01:13:31.041 : de:01:13:31.041
    01:17:51.291 : de:01:17:51.291
    01:23:37.166 : de:01:23:37.166
    01:29:43.000 : de:01:29:43.000
    01:34:39.875 : de:01:34:39.875
    01:40:45.416 : de:01:40:45.416
    01:45:19.750 : de:01:45:19.750
    01:48:24.832 : de:01:48:24.832
    01:57:07.916 : de:01:57:07.916

    Релиз подготовил:
    Размер скачиваемого торрента: 3.33 GB (3579816632 Bytes)

    Зачётный препод/Fack ju Ghte (2013) HDRip-AVC от АРХАНГЕЛ | L1, A скачать через торрент бесплатно
    загрузка...
    Рейтинг →
     (голосов: 1, оценка 3/5, голосовать можно 1 раз )

    Другие торренты по теме:

  • Зачётный препод / Fack ju Ghte (2013) BDRip 720p | A, L1
  • Зачётный препод / Fack ju Gohte
  • Зачётный препод / Fack ju Ghte (2013) BDRip 720p от Leonardo and Scarabey | A
  • Зачётный препод / Fack ju Göhte
  • Зачётный препод / Fack ju Ghte (2013) BDRip-AVC от Leo.pard and Scarabey | A скачать через торрент бесплатно
  • Зачётный препод / Fack ju Ghte (2013) BDRip-AVC | A скачать через торрент бесплатно
  • Зачётный препод / Fack ju Ghte (2013) BDRip 1080p | 2xA скачать через торрент бесплатно
  • Зачётный препод / Fack ju Ghte (2013) BDRip 720p от NovaLan | Чистый звук, А скачать через торрент бесплатно


    • Комментарии (0):

      Информация

      Информация

        Посетители, находящиеся в группе Гости, не могут оставлять комментарии в данной новости.

        ↓ Меню



        ↓ Опрос

        А Вы добавили сайт в закладки?
        Да
        Не


        Top 10 за месяц (Фильмы)