.
Авторизация | Регистрация
Хочешь лучшие торренты? Добавь свой email!
Добавить
» » Черепашки-ниндзя / Teenage Mutant Ninja Turtles (2014) WEB-DLRip от ExKinoRay | D | Чистый звук скачать через торрент бесплатно




    Черепашки-ниндзя / Teenage Mutant Ninja Turtles (2014) WEB-DLRip от ExKinoRay | D | Чистый звук скачать через торрент бесплатно

    Опубликовал: Админ | Дата: 27-02-2015, 11:10 | Просмотров: 185


    Детально о кино
    Русское название:Черепашки-ниндзя
    Русское название в мировом прокате:Teenage Mutant Ninja Turtles
    Создали в:2014
    Категория жанра:фантастика, фэнтези, боевик, комедия, приключения
    Главный режиссер:Джонатан Либесман/Jonathan Liebesman
    Актеры:Меган Фокс, Уилл Арнетт, Уильям Фихтнер, Алан Ричсон, Ноэль Фишер, Пит Пложек, Джонни Ноксвил, Джереми Ховард, Дэнни Вудберн, Тони Шэлуб
    Сюжет фильма:Город нуждается в героях. Тьма окутала Нью-Йорк в виде Шреддера и его зловещего Клана Футов, у которого имеется железный контроль над всеми, от полицейских до политиков. Будущее выглядит мрачным, пока из канализации не поднимается и не раскрывает своё предназначение четвёрка отверженных братьев — Черепашки-ниндзя. Черепашки должны работать вместе с бесстрашным репортёром Эйприл и её саркастическим оператором Верном Фенвиком, чтобы спасти город и разгадать дьявольский план Шреддера.

    Снималось в:США
    Киностудия:Gama Entertainment Partners, Heavy Metal, Mednick Productions, Nickelodeon Movies, Paramount Pictures
    Время просмотра:01:33:52
    Перевод текста:Профессиональный (полное дублирование) |Чистый звук|+ Оригинал Английский
    Файл
    Кодек для видео:XviD
    Качество фильма:WEB-DLRip
    Информация о видео:720x304 (2.35:1), 23.976 fps, XviD ~2394 kbps avg, 0.456 bit/pixel
    Информация о звуке #1:48 kHz, AC3 Dolby Digital, 2/0 (L,R) ch, 192 kbps Constant |Дубляж|
    Информация о звуке #2:48 kHz, AC3 Dolby Digital, 6 ch, 384 kbps Constant |Оригинал|Отдельно
    Субтитры:английские (*.srt, отдельным файлом)
    Семпл
    MI:
    Общее
    Полное имя : D:ВидеоCherepashki.Ninz9.2014.D.WEB-DLRip by Vovan366(ExKinoRay)Cherepashki.Ninz9.2014.D.WEB-DLRip by Vovan366(ExKinoRay).avi
    Формат : AVI
    Формат/Информация : Audio Video Interleave
    Размер файла : 1,84 Гбайт
    Продолжительность : 1 ч. 41 м.
    Общий поток : 2596 Кбит/сек
    Программа кодирования : VirtualDubMod 1.5.10.3 | www.virtualdub-fr.org || (build 2550/release)
    Библиотека кодирования : VirtualDubMod build 2550/release
    Видео
    Идентификатор : 0
    Формат : MPEG-4 Visual
    Профиль формата : Advanced Simple@L5
    Параметр BVOP формата : 1
    Параметр QPel формата : Нет
    Параметр GMC формата : Без точки перехода
    Параметр матрицы формата : Default (H.263)
    Идентификатор кодека : XVID
    Идентификатор кодека/Подсказка : XviD
    Продолжительность : 1 ч. 41 м.
    Битрейт : 2394 Кбит/сек
    Ширина : 720 пикселей
    Высота : 304 пикселя
    Соотношение сторон : 2,35:1
    Частота кадров : 23,976 кадра/сек
    Цветовое пространство : YUV
    Субдискретизация насыщенности : 4:2:0
    Битовая глубина : 8 бит
    Тип развёртки : Прогрессивная
    Метод сжатия : С потерями
    Бит/(Пиксели*Кадры) : 0.456
    Размер потока : 1,70 Гбайт (92%)
    Библиотека кодирования : XviD 1.2.1 (UTC 2008-12-04)
    Аудио
    Идентификатор : 1
    Формат : AC-3
    Формат/Информация : Audio Coding 3
    Расширение режима : CM (complete main)
    Параметр Endianness формата : Big
    Идентификатор кодека : 2000
    Продолжительность : 1 ч. 41 м.
    Вид битрейта : Постоянный
    Битрейт : 192 Кбит/сек
    Каналы : 2 канала
    Расположение каналов : Front: L R
    Частота : 48,0 КГц
    Битовая глубина : 16 бит
    Метод сжатия : С потерями
    Размер потока : 139 Мбайт (7%)
    Выравнивание : Разделение по промежуткам
    Продолжительность промежутка : 42 мс. (1,00 видеокадр)
    Время предзагрузки промежутка : 500 мс.
    Скриншоты для ознакомления



    Релиз подготовил:
    Rip by:Vovan366
    Залил: Wazzzup RK
    Размер скачиваемого торрента: 2.11 GB (2268282407 Bytes)

    Черепашки-ниндзя/Teenage Mutant Ninja Turtles (2014) WEB-DLRip от ExKinoRay | D | Чистый звук скачать через торрент бесплатно
    загрузка...
    Рейтинг →
     (голосов: 1, оценка 5/5, голосовать можно 1 раз )

    Другие торренты по теме:

  • Черепашки-ниндзя / Черепашки Мутанты Ниндзя / Nickelodeon Teenage Mutant Ninja Turtles (2012) WEB-DLRip от Youtracker
  • Черепашки-ниндзя / Черепашки Мутанты Ниндзя / Teenage Mutant Ninja Turtles (2013) WEB-DLRip скачать через торрент бесплатно
  • Черепашки-ниндзя / Черепашки Мутанты Ниндзя / Teenage Mutant Ninja Turtles (2013) WEB-DLRip скачать через торрент бесплатно
  • Черепашки-ниндзя / Черепашки Мутанты Ниндзя / Teenage Mutant Ninja Turtles (2013-2014) WEB-DLRip
  • OST - Черепашки-ниндзя / TMNT (1990 - 2007) MP3
  • Черепашки-ниндзя 2: Тайна изумрудного зелья / Teenage Mutant Ninja Turtles II: The Secret of the Ooze (1991) DVDRip от Youtracker
  • Черепашки ниндзя. Новые приключения / Teenage Mutant Ninja Turtles (2003) DVDRip | КПК
  • Черепашки-ниндзя 3 / Teenage Mutant Ninja Turtles III (1993) BDRip от Youtracker | P


    • Комментарии (0):

      Информация

      Информация

        Посетители, находящиеся в группе Гости, не могут оставлять комментарии в данной новости.

        ↓ Меню



        ↓ Опрос

        А Вы добавили сайт в закладки?
        Да
        Не


        Top 10 за месяц (Фильмы)