.
Авторизация | Регистрация
» » Касл / Castle (2014) WEB-DL 720p от HDClub | LostFilm скачать через торрент бесплатно




    Касл / Castle (2014) WEB-DL 720p от HDClub | LostFilm скачать через торрент бесплатно

    Опубликовал: Админ | Дата: 27-02-2015, 11:10 | Просмотров: 135


    Детально о кино
    Русское название:Касл
    Русское название в мировом прокате:Castle
    Создали в:2014
    Категория жанра:драма, комедия, криминал, детектив
    Главный режиссер:Роб Боумен, Джон Терлески, Брайан Спайсер
    Актеры:Натан Филлион, Стана Катик, Сьюзэн Салливан, Молли С. Куинн, Джон Уэртас, Тамала Джонс, Шимус Девер, Рубен Сантьяго-Хадсон, Пенни Джонсон, Ари Гросс
    Сюжет фильма:
    Знаменитый нью-йоркский писатель Ричард Рики Касл получает личное разрешение от мэра города участвовать в расследованиях убойного отдела, чтобы черпать вдохновение для своих книг из работы детективов и реальной полицейской хроники.
    Касл пытается доказать надменному детективу Кейт Беккет, что в расследовании убийств его блестящий ум и умение думать как преступник, еще более полезны, чем его связи с влиятельными людьми и общественное признание.
    Вскоре он становится неотъемлемой частью жизни убойного отдела. А дома Касла ждет любимая дочь Алексис и мать - светская львица, Марта.
    MI
    Общее
    Уникальный идентификатор : 245473637550034742550917206378482439155 (0xB8AC80BECF51A24C950FEDE96DC313F3)
    Полное имя : E:uploadCastle.S07.720p.WEB-DL.Rus.EngCastle.S07E02.720p.WEB-DL.Rus.Eng.mkv
    Формат : Matroska
    Версия формата : Version 4/Version 2
    Размер файла : 1,44 Гбайт
    Продолжительность : 42 м.
    Общий поток : 4787 Кбит/сек
    Название фильма : Castle Season 7 (2014) - Release for HDCLUB by vlaluk
    Дата кодирования : UTC 2014-10-14 10:03:52
    Программа кодирования : mkvmerge v6.9.1 (;Blue Panther;) 64bit built on Apr 18 2014 18:23:38
    Библиотека кодирования : libebml v1.3.0 + libmatroska v1.4.1
    Attachements : small_cover.jpg/cover.jpg/cover_land.jpg/small_cover_land.jpg
    Видео
    Идентификатор : 1
    Формат : AVC
    Формат/Информация : Advanced Video Codec
    Профиль формата : High@L3.1
    Параметр CABAC формата : Нет
    Параметр ReFrames формата : 2 кадра
    Идентификатор кодека : V_MPEG4/ISO/AVC
    Продолжительность : 42 м.
    Битрейт : 3924 Кбит/сек
    Ширина : 1280 пикселей
    Высота : 720 пикселей
    Соотношение сторон : 16:9
    Режим частоты кадров : Постоянный
    Частота кадров : 23,976 кадра/сек
    Цветовое пространство : YUV
    Субдискретизация насыщенности : 4:2:0
    Битовая глубина : 8 бит
    Тип развёртки : Прогрессивная
    Бит/(Пиксели*Кадры) : 0.178
    Размер потока : 1,18 Гбайт (82%)
    Заголовок : Season 7, Episode 02: Montreal/Монреаль - Release for HDCLUB by vlaluk
    Язык : English
    Default : Да
    Forced : Нет
    Основные цвета : BT.709
    Характеристики трансфера : BT.709
    Коэффициенты матрицы : BT.709
    Аудио #1
    Идентификатор : 2
    Формат : AC-3
    Формат/Информация : Audio Coding 3
    Расширение режима : CM (complete main)
    Параметр Endianness формата : Big
    Идентификатор кодека : A_AC3
    Продолжительность : 42 м.
    Вид битрейта : Постоянный
    Битрейт : 384 Кбит/сек
    Каналы : 6 каналов
    Расположение каналов : Front: L C R, Side: L R, LFE
    Частота : 48,0 КГц
    Битовая глубина : 16 бит
    Метод сжатия : С потерями
    Размер потока : 118 Мбайт (8%)
    Заголовок : DD 5.1 @ 384 kbps @ LostFilm
    Язык : Russian
    Default : Да
    Forced : Нет
    Аудио #2
    Идентификатор : 3
    Формат : AC-3
    Формат/Информация : Audio Coding 3
    Расширение режима : CM (complete main)
    Параметр Endianness формата : Big
    Идентификатор кодека : A_AC3
    Продолжительность : 42 м.
    Вид битрейта : Постоянный
    Битрейт : 384 Кбит/сек
    Каналы : 6 каналов
    Расположение каналов : Front: L C R, Side: L R, LFE
    Частота : 48,0 КГц
    Битовая глубина : 16 бит
    Метод сжатия : С потерями
    Размер потока : 118 Мбайт (8%)
    Заголовок : DD 5.1 @ 384 kbps
    Язык : English
    Default : Нет
    Forced : Нет
    Текст #1
    Идентификатор : 4
    Формат : UTF-8
    Идентификатор кодека : S_TEXT/UTF8
    Идентификатор кодека/Информация : UTF-8 Plain Text
    Заголовок : Russian @ SRT
    Язык : Russian
    Default : Нет
    Forced : Нет
    Текст #2
    Идентификатор : 5
    Формат : UTF-8
    Идентификатор кодека : S_TEXT/UTF8
    Идентификатор кодека/Информация : UTF-8 Plain Text
    Заголовок : English @ SRT
    Язык : English
    Default : Нет
    Forced : Нет
    Дополнительно
    Дорожка №1 получена наложением выделенного голоса на центр декодированного AC3.


    Снималось в:США
    Время просмотра:~ 00:43:00
    Перевод текста:Профессиональный (многоголосый закадровый) LostFilm
    Субтитры:Русские, английские
    Файл
    Кодек для видео:x264
    Качество фильма:WEB-DL 720p
    Информация о видео:1280x720 at 23.976 fps, MPEG-4 AVC, ~4000 kbps avg
    Информация о звуке:
    Информация о звуке 1:Russian: 48 kHz, AC3, 3/2 (L,C,R,l,r) + LFE ch, ~384.00 kbps avg |Многоголосый закадровый, LostFilm|
    Информация о звуке 2:English: 48 kHz, AC3, 3/2 (L,C,R,l,r) + LFE ch, ~384.00 kbps avg
    Скриншоты для ознакомления

    Релиз подготовил:byvlaluk
    Размер скачиваемого торрента: 7.22 GB (7754421256 Bytes)

    Касл/Castle (2014) WEB-DL 720p от HDClub | LostFilm скачать через торрент бесплатно
    загрузка...
    Рейтинг →
     (голосов: 1, оценка 5/5, голосовать можно 1 раз )

    Другие торренты по теме:



      Комментарии (0):

      Информация

      Информация

        Посетители, находящиеся в группе Гости, не могут оставлять комментарии в данной новости.

        ↓ Меню



        ↓ Опрос

        А Вы добавили сайт в закладки?
        Да
        Не


        Top 10 за неделю (Фильмы)