.
Авторизация | Регистрация
» » Гангста / Love Rob the Mob (2014) DVD5 от New-Team | Лицензия скачать через торрент бесплатно




    Гангста / Love Rob the Mob (2014) DVD5 от New-Team | Лицензия скачать через торрент бесплатно

    Опубликовал: Админ | Дата: 27-02-2015, 11:10 | Просмотров: 162


    Детально о кино
    Русское название:Гангста
    Русское название в мировом прокате:Love Rob the Mob
    Создали в:2014
    Категория жанра:драма, криминал
    Главный режиссер:Рэймонд Де Фелитта/Raymond De Felitta
    Актеры:Майкл Питт, Нина Арианда, Энди Гарсиа, Рэй Романо, Гриффин Данн, Майкл Рисполи, Юл Васкес, Фрэнк Уэйли, Брайан Тарантина, Аида Туртурро
    Сюжет фильма:
    Парочка молодых влюбленных, мечтая скопить деньги на свадьбу, решает совершить серию дерзких ограблений клубов, где собираются мафиози. Их план прост — чтобы они ни натворили, мафия не будет жаловаться в полицию. Местные братаны не могут поверить своим глазам, когда их обчищают до нитки какие-то сопляки. Больше того, случайно, у них похищают важную улику, которой очень интересуется ФБР. Теперь за налетчиками начинается настоящая охота…

    Снималось в:США
    Киностудия:Exchange, The
    Время просмотра:01:39:54
    Перевод текста:Профессиональный (дублированный) Лицензия
    Файл
    Кодек для видео:MPEG2
    Качество фильма:DVD5 R5
    Информация о видео:PAL 16:9 (720x576(0.582)) MPEG Video, 25,000 кадр/сек, 6034 Кбит/сек
    Информация о звуке:Russian (Dolby AC3, 6 ch) 448 Кбит/сек, 48,0 КГц
    Субтитры:нет
    DVDInfo
    Title: Gangsta.Love.2014.D.DVD5
    Size: 4.17 Gb ( 4 377 666,00 KBytes ) - DVD-5
    Enabled regions: 1, 2, 3, 4, 5, 6, 7, 8
    VTS_01 :
    Play Length: 00:00:19
    Video: PAL 16:9 (720x576) VBR, Auto PanScan, Auto Letterboxed
    Audio:
    Not specified (Dolby AC3, 2 ch)
    VTS_02 :
    Play Length: 01:39:54
    Video: PAL 16:9 (720x576) VBR, Auto PanScan, Auto Letterboxed
    Audio:
    Not specified (Dolby AC3, 6 ch)
    * Menus Information *
    VIDEO_TS Menu
    Video:
    PAL 16:9 (720x576) VBR
    Auto PanScan, Auto Letterboxed
    Russian Language Unit :
    Title Menu
    VTS_01 Menu
    Video:
    PAL 16:9 (720x576) VBR
    Auto PanScan, Auto Letterboxed
    Audio:
    Not specified (Dolby AC3, 6 ch)
    Russian Language Unit :
    Root Menu
    VTS_02 Menu
    Video:
    PAL 4:3 (720x576) VBR
    Russian Language Unit :
    Root Menu

    MediaInfo
    Общее
    Полное имя : F:Новинки 2014Gangsta.Love.2014.D.DVD5VIDEO_TSVTS_02_1.VOB
    Формат : MPEG-PS
    Размер файла : 1024 Мбайт
    Продолжительность : 21 м.
    Режим общего битрейта : Переменный
    Общий поток : 6613 Кбит/сек
    Видео
    Идентификатор : 224 (0xE0)
    Формат : MPEG Video
    Версия формата : Version 2
    Профиль формата : Main@Main
    Параметр BVOP формата : Да
    Параметр матрицы формата : Выборочная
    Параметр GOP формата : M=3, N=15
    Format_Settings_PictureStructure : Frame
    Продолжительность : 21 м.
    Вид битрейта : Переменный
    Битрейт : 6034 Кбит/сек
    Максимальный битрейт : 9000 Кбит/сек
    Ширина : 720 пикселей
    Высота : 576 пикселей
    Соотношение сторон : 16:9
    Частота кадров : 25,000 кадров/сек
    Стандарт вещания : PAL
    Цветовое пространство : YUV
    Субдискретизация насыщенности : 4:2:0
    Битовая глубина : 8 бит
    Тип развёртки : Чересстрочная
    Порядок развёртки : Верхнее поле первое
    Метод сжатия : С потерями
    Бит/(Пиксели*Кадры) : 0.582
    Временной код первого кадра : 00:00:00:00
    Оригинал временного кода : Group of pictures t_head
    Размер потока : 934 Мбайт (91%)
    Аудио
    Идентификатор : 189 (0xBD)-128 (0x80)
    Формат : AC-3
    Формат/Информация : Audio Coding 3
    Расширение режима : CM (complete main)
    Параметр Endianness формата : Big
    Режим смешивания : DVD-Video
    Продолжительность : 21 м.
    Вид битрейта : Постоянный
    Битрейт : 448 Кбит/сек
    Каналы : 6 каналов
    Расположение каналов : Front: L C R, Side: L R, LFE
    Частота : 48,0 КГц
    Битовая глубина : 16 бит
    Метод сжатия : С потерями
    Размер потока : 69,3 Мбайт (7%)

    Скриншоты для ознакомления меню


    Скриншоты для ознакомления фильма


    Релиз подготовил:
    Залил: voovaz
    Размер скачиваемого торрента: 4.17 GB (4482729984 Bytes)

    Гангста/Love Rob the Mob (2014) DVD5 от New-Team | Лицензия скачать через торрент бесплатно
    загрузка...
    Рейтинг →
     (голосов: 1, оценка 5/5, голосовать можно 1 раз )

    Другие торренты по теме:

  • Гангста Love (2014) торрент скачать бесплатно
  • Гангста Love / Rob the Mob (2014) WEB-DL 1080p | Чистый звук торрент скачать бесплатно
  • Гангста Love / Rob the Mob (2014) WEB-DL 720p | Чистый звук торрент скачать бесплатно
  • Гангста Love / Rob the Mob (2014) WEB-DLRip | Чистый звук торрент скачать бесплатно
  • Гангста Love / Rob the Mob (2014) WEB-DLRip | Чистый звук торрент скачать бесплатно
  • Гангста Love / Rob the Mob (2014) HDRip-AVC | Чистый звук скачать через торрент бесплатно
  • Гангста Love / Rob the Mob (2014) BDRip 1080p | Чистый звук скачать через торрент бесплатно
  • Гангста Love / Rob the Mob (2014) BDRip 720p | Чистый звук скачать через торрент бесплатно


    • Комментарии (0):

      Информация

      Информация

        Посетители, находящиеся в группе Гости, не могут оставлять комментарии в данной новости.

        ↓ Меню



        ↓ Опрос

        А Вы добавили сайт в закладки?
        Да
        Не


        Top 10 за неделю (Фильмы)