.
Авторизация | Регистрация
» » Обитель проклятых / Eliza Graves (2014) WEB-DL 720p | Чистый звук скачать через торрент бесплатно




    Обитель проклятых / Eliza Graves (2014) WEB-DL 720p | Чистый звук скачать через торрент бесплатно

    Опубликовал: Админ | Дата: 27-02-2015, 11:10 | Просмотров: 153


    Детально о кино
    Русское название: Обитель проклятых
    Русское название в мировом прокате: Eliza Graves
    Создали в: 2014
    Категория жанра: триллер
    Главный режиссер: Брэд Андерсон
    Актеры:Кейт Бекинсейл, Джим Стёрджесс, Бен Кингсли, Дэвид Тьюлис, Майкл Кейн, Брендан Глисон, Джейсон Флеминг, Софи Кеннеди Кларк, Шинед Кьюсак, Гийом Делони
    Сюжет фильма:Молодой медицинский работник Эдвард устраивается работать в психиатрическую лечебницу. Вскоре становится известно об исчезновении одного из лечащих врачей психушки. Эдвард обнаруживает, что его похитили пациенты больницы, а вскоре и вся психушка оказывается захвачена ими…

    Снималось в: США
    Время просмотра: 01:52:40
    Тип перевода:Дублированное Чистый звук Официальный
    Файл
    Тип видео: MKV (x264)
    Качество фильма: WEB-DL 720p
    Информация о видео: 4051 kb/s, 1280x530
    Информация о звуке: Russian: AC3, 384 kb/s (2 ch)/English: AC3, 384 kb/s (6 ch)
    Субтитры:English


    MI
    Format : Matroska
    Format version : Version 4/Version 2
    File size : 3.87 GiB
    Duration : 1h 52mn
    Overall bit rate : 4 917 Kbps
    Encoded date : UTC 2014-11-02 10:30:55
    Writing application : mkvmerge v6.1.0 (;Old Devil;) built on Mar 4 2013 09:10:42
    Writing library : libebml v1.3.0 + libmatroska v1.4.0
    Video
    ID : 1
    Format : AVC
    Format/Info : Advanced Video Codec
    Format profile : Main@L3.1
    Format settings, CABAC : No
    Format settings, ReFrames : 2 frames
    Codec ID : V_MPEG4/ISO/AVC
    Duration : 1h 52mn
    Bit rate : 4 051 Kbps
    Width : 1 280 pixels
    Height : 530 pixels
    Display aspect ratio : 2.40:1
    Frame rate : 23.976 fps
    Color space : YUV
    Chroma subsampling : 4:2:0
    Bit depth : 8 bits
    Scan type : Progressive
    Bits/(Pixel*Frame) : 0.249
    Stream size : 3.19 GiB (82%)
    Language : English
    Default : Yes
    Forced : No
    Color primaries : BT.709-5, BT.1361, IEC 61966-2-4, SMPTE RP177
    Transfer characteristics : BT.709-5, BT.1361
    Matrix coefficients : BT.709-5, BT.1361, IEC 61966-2-4 709, SMPTE RP177
    Audio #1
    ID : 2
    Format : AC-3
    Format/Info : Audio Coding 3
    Mode extension : CM (complete main)
    Format settings, Endianness : Big
    Codec ID : A_AC3
    Duration : 1h 52mn
    Bit rate mode : Constant
    Bit rate : 384 Kbps
    Channel(s) : 2 channels
    Channel positions : Front: L R
    Sampling rate : 48.0 KHz
    Bit depth : 16 bits
    Compression mode : Lossy
    Stream size : 309 MiB (8%)
    Language : Russian
    Default : Yes
    Forced : No
    Audio #2
    ID : 3
    Format : AC-3
    Format/Info : Audio Coding 3
    Mode extension : CM (complete main)
    Format settings, Endianness : Big
    Codec ID : A_AC3
    Duration : 1h 52mn
    Bit rate mode : Constant
    Bit rate : 384 Kbps
    Channel(s) : 6 channels
    Channel positions : Front: L C R, Side: L R, LFE
    Sampling rate : 48.0 KHz
    Bit depth : 16 bits
    Compression mode : Lossy
    Stream size : 309 MiB (8%)
    Language : English
    Default : No
    Forced : No
    Text
    ID : 4
    Format : UTF-8
    Codec ID : S_TEXT/UTF8
    Codec ID/Info : UTF-8 Plain Text
    Language : English
    Default : No
    Forced : No
    Menu
    00:00:00.000 : en:1
    00:06:28.000 : en:2
    00:14:17.000 : en:3
    00:18:30.000 : en:4
    00:26:18.000 : en:5
    00:34:15.000 : en:6
    00:40:43.000 : en:7
    00:45:38.000 : en:8
    00:52:33.000 : en:9
    00:57:27.000 : en:10
    01:03:40.000 : en:11
    01:09:08.000 : en:12
    01:16:32.000 : en:13
    01:22:07.000 : en:14
    01:30:18.000 : en:15
    01:43:17.000 : en:16
    Скриншоты для ознакомления

    Размер скачиваемого торрента: 3.87 GB (4155176565 Bytes)

    Обитель проклятых/Eliza Graves (2014) WEB-DL 720p | Чистый звук скачать через торрент бесплатно
    загрузка...
    Рейтинг →
     (голосов: 1, оценка 5/5, голосовать можно 1 раз )

    Другие торренты по теме:



      Комментарии (0):

      Информация

      Информация

        Посетители, находящиеся в группе Гости, не могут оставлять комментарии в данной новости.

        ↓ Меню



        ↓ Опрос

        А Вы добавили сайт в закладки?
        Да
        Не


        Top 10 за неделю (Фильмы)