.
Авторизация | Регистрация
» » Наперегонки с Луной / Racing with the Moon (1984) WEB-DLRip от New-Team торрент скачать бесплатно




    Наперегонки с Луной / Racing with the Moon (1984) WEB-DLRip от New-Team торрент скачать бесплатно

    Опубликовал: Админ | Дата: 27-02-2015, 11:10 | Просмотров: 142


    Снималось в: США
    Создали в: Jaffe-Lansing, Paramount Pictures
    Категория жанра: драма, мелодрама, комедия
    Создали в: 1984
    Время просмотра: 01:48:22
    Перевод текста:Профессиональный (многоголосый, закадровый)
    Оригинальная аудиодорожка: английский
    Субтитры подготовлены: нет
    Главный режиссер: Ричард Бенжамин/Richard Benjamin
    Актеры:
    Шон Пенн /Sean Penn/, Элизабет МакГоверн /Elizabeth McGovern/, Николас Кейдж /Nicolas Cage/, Джон Карлен /John Karlen/, Рутания Олда /Rutanya Alda/, Кэйт Уильямсон /Kate Williamson/, Криспин Гловер /Crispin Glover/...
    Сюжет:
    Рождество 1942 года. Главные герои — Генри Нэш и его друг Никки скоро должны стать морскими пехотинцами. В то время, как Генри сражен недавно появившейся в городке девушкой, хулиганистый и несерьезный Никки попадает в переделку. Чтобы помочь другу выпутаться, Генри приходится просить помощи у загадочной незнакомки…
    Яркие события в жизни героев происходят на фоне одного из самых драматичных периодов в истории Америки…




    Исходник:WEB-DL 720p
    Тип релиза:WEB-DLRip
    Контейнер: AVI
    Информация о видео: 720x400 (16:9), 23,976 fps, XviD ~ 1275 kbps avg, 0.185 bit/pixel
    Информация о звуке: 48 kHz, Dolby Digital AC3 2.0, 192 kbps MVO
    Информация о звуке: 48 kHz, Dolby Digital AC3 5.1, 448 kbps Английский
    Раздача от:
    MediaInfo

    Общее
    Полное имя : Naperegonki.s.lunoy.1984.WEB-DLRip_New-team_by_AVP_Studio.avi
    Формат : AVI
    Формат/Информация : Audio Video Interleave
    Размер файла : 1,46 Гбайт
    Продолжительность : 1 ч. 48 м.
    Общий поток : 1930 Кбит/сек
    Программа кодирования : VirtualDubModRus 1.5.10.2 (build 2542/release)
    Библиотека кодирования : VirtualDubMod build 2542/release
    Видео
    Идентификатор : 0
    Формат : MPEG-4 Visual
    Профиль формата : Advanced Simple@L5
    Параметр BVOP формата : 1
    Параметр QPel формата : Нет
    Параметр GMC формата : Без точки перехода
    Параметр матрицы формата : Выборочная
    Идентификатор кодека : XVID
    Идентификатор кодека/Подсказка : XviD
    Продолжительность : 1 ч. 48 м.
    Битрейт : 1275 Кбит/сек
    Ширина : 720 пикселей
    Высота : 400 пикселей
    Соотношение сторон : 16:9
    Частота кадров : 23,976 кадра/сек
    Цветовое пространство : YUV
    Субдискретизация насыщенности : 4:2:0
    Битовая глубина : 8 бит
    Тип развёртки : Прогрессивная
    Метод сжатия : С потерями
    Бит/(Пиксели*Кадры) : 0.185
    Размер потока : 989 Мбайт (66%)
    Библиотека кодирования : XviD 73
    Аудио #1
    Идентификатор : 1
    Формат : AC-3
    Формат/Информация : Audio Coding 3
    Расширение режима : CM (complete main)
    Параметр Endianness формата : Big
    Идентификатор кодека : 2000
    Продолжительность : 1 ч. 48 м.
    Вид битрейта : Постоянный
    Битрейт : 192 Кбит/сек
    Каналы : 2 канала
    Расположение каналов : Front: L R
    Частота : 48,0 КГц
    Битовая глубина : 16 бит
    Метод сжатия : С потерями
    Размер потока : 149 Мбайт (10%)
    Выравнивание : Разделение по промежуткам
    Продолжительность промежутка : 42 мс. (1,00 видеокадр)
    Время предзагрузки промежутка : 500 мс.
    Аудио #2
    Идентификатор : 2
    Формат : AC-3
    Формат/Информация : Audio Coding 3
    Расширение режима : CM (complete main)
    Параметр Endianness формата : Big
    Идентификатор кодека : 2000
    Продолжительность : 1 ч. 48 м.
    Вид битрейта : Постоянный
    Битрейт : 448 Кбит/сек
    Каналы : 6 каналов
    Расположение каналов : Front: L C R, Side: L R, LFE
    Частота : 48,0 КГц
    Битовая глубина : 16 бит
    Метод сжатия : С потерями
    Размер потока : 347 Мбайт (23%)
    Выравнивание : Разделение по промежуткам
    Продолжительность промежутка : 42 мс. (1,00 видеокадр)
    Время предзагрузки промежутка : 500 мс

    Скриншоты для ознакомления



    Залил: AVPStudio
    Размер скачиваемого торрента: 1.46 GB (1568407552 Bytes)

    Наперегонки с Луной/Racing with the Moon (1984) WEB-DLRip от New-Team торрент скачать бесплатно
    загрузка...
    Рейтинг →
     (голосов: 1, оценка 3/5, голосовать можно 1 раз )

    Другие торренты по теме:

  • Наперегонки с Луной / Racing with the Moon (1984) WEB-DLRip-AVC от New-Team скачать через торрент бесплатно
  • Наперегонки с Луной / Racing with the Moon (1984) WEB-DLRip от New-Team скачать через торрент бесплатно
  • Специальный репортаж. Наперегонки со смертью (2014) SATRip скачать через торрент бесплатно


    • Комментарии (0):

      Информация

      Информация

        Посетители, находящиеся в группе Гости, не могут оставлять комментарии в данной новости.

        ↓ Меню



        ↓ Опрос

        А Вы добавили сайт в закладки?
        Да
        Не


        Top 10 за неделю (Фильмы)