.
Авторизация | Регистрация
» » Пункт назначения: Коллекция / Final Destination: The Collection (2000-2011) BDRip 720p торрент скачать бесплатно




    Пункт назначения: Коллекция / Final Destination: The Collection (2000-2011) BDRip 720p торрент скачать бесплатно

    Опубликовал: Админ | Дата: 27-02-2015, 11:10 | Просмотров: 106

    Пункт назначения/Final Destination (2000)

    Детально о кино
    Русское название:Пункт назначения
    Русское название в мировом прокате:Final Destination
    Создали в:2000
    Категория жанра:ужасы, триллер
    Главный режиссер:Джеймс Вонг
    Актеры:Девон Сава, Эли Лартер, Керр Смит, Кристен Клоук, Дэниэл Робак, Роджер Гуэнвёр Смит, Чэд Донелла, Шонн Уильям Скотт, Тони Тодд, Аманда Детмер
    Сюжет фильма:Алекс летит развлекаться со всем классом в Париж на 10 дней. Отец говорит, что детство кончилось. В аэропорту он узнает, что время вылета совпадает с его днем рождения. Потом, повинуясь плохому предчувствию, Алекс покидает самолет вместе с еще семью людьми. И тут взрывается их самолет…
    Но позже оставшиеся в живых пассажиры гибнут один за другим, и Алекс понимает: смерть не обманешь — это только отсрочка…

    Снималось в:USA, Canada
    Киностудия:New Line Cinema, Zide-Perry Productions, Hard Eight Pictures
    Время просмотра:01:38:02
    Перевод текста:профессиональный (полное дублирование), профессиональный (многоголосый закадровый), авторский (одноголосый закадровый)
    Субтитры:русские, английские
    Файл
    Кодек для видео:MPEG-4 AVC/H.264
    Качество фильма:BDRip 720p
    Информация о видео:1280 x 720, (16:9), 5 575 kbps, 23.976 fps, 0.252 b/px
    Информация о звуке:
    Информация о звуке # 1:АС3, 6 ch, 448 kbps, 48 000 Hz Дублированный
    Информация о звуке # 2:AC3, 6 ch, 384 kbps, 48 000 Hz Многоголосый закадровый (Позитив-Мультимедиа)
    Информация о звуке # 3:DTS, 6 ch, 1509 kbps, 48 000 Hz Одноголосый закадровый (А.Гаврилов)
    Информация о звуке # 4:AC3, 6 ch, 640 kbps, 48 000 Hz Оригинальный
    MediaInfo
    Общее
    Уникальный идентификатор : 209262252663191649345940525843860274351 (0x9D6E71A1081550BE932E6BEE89C1BCAF)
    Полное имя : D:Пункт назначения. Коллекция BDRip 720p2000 Пункт назначения BDRip 720p.mkv
    Формат : Matroska
    Версия формата : Version 4/Version 2
    Размер файла : 5,86 Гбайт
    Продолжительность : 1 ч. 38 м.
    Общий поток : 8558 Кбит/сек
    Название фильма : Пункт назначения/Final Destination (2000) BDRip 720p
    Дата кодирования : UTC 2014-11-02 10:36:55
    Программа кодирования : mkvmerge v7.2.0 (;On Every Street;) 32bit built on Sep 13 2014 15:42:11
    Библиотека кодирования : libebml v1.3.0 + libmatroska v1.4.1
    DURATION : 01:34:57.900000000
    NUMBER_OF_FRAMES : 957
    NUMBER_OF_BYTES : 34923
    _STATISTICS_WRITING_APP : mkvmerge v7.2.0 (;On Every Street;) 32bit built on Sep 13 2014 15:42:11
    _STATISTICS_WRITING_DATE_UTC : 2014-11-02 10:36:55
    _STATISTICS_TAGS : BPS DURATION NUMBER_OF_FRAMES NUMBER_OF_BYTES
    Видео
    Идентификатор : 1
    Формат : AVC
    Формат/Информация : Advanced Video Codec
    Профиль формата : High@L4.1
    Параметр CABAC формата : Да
    Параметр ReFrames формата : 6 кадров
    Параметр GOP формата : N=1
    Идентификатор кодека : V_MPEG4/ISO/AVC
    Продолжительность : 1 ч. 38 м.
    Битрейт : 5575 Кбит/сек
    Ширина : 1280 пикселей
    Высота : 720 пикселей
    Соотношение сторон : 16:9
    Режим частоты кадров : Постоянный
    Частота кадров : 23,976 кадра/сек
    Цветовое пространство : YUV
    Субдискретизация насыщенности : 4:2:0
    Битовая глубина : 8 бит
    Тип развёртки : Прогрессивная
    Бит/(Пиксели*Кадры) : 0.252
    Размер потока : 3,70 Гбайт (63%)
    Заголовок : 2000 Пункт назначения/Final Destination BDRip 720p
    Библиотека кодирования : x264 core 67 r1140M 37424f8
    Настройки программы : cabac=1/ref=6/deblock=1:-3:-3/analyse=0x3:0x133/me=umh/subme=9/psy_rd=1.1:0.0/mixed_ref=1/me_range=32/chroma_me=1/trellis=0/8x8dct=1/cqm=2/deadzone=6,4/chroma_qp_offset=-2/threads=6/nr=0/decimate=1/mbaff=0/bframes=16/b_pyramid=0/b_adapt=1/b_bias=0/direct=1/wpredb=1/keyint=250/keyint_min=25/scenecut=40/rc=2pass/bitrate=5575/ratetol=1.0/qcomp=0.60/qpmin=10/qpmax=51/qpstep=4/cplxblur=20.0/qblur=0.5/ip_ratio=1.40/pb_ratio=1.30/aq=1:0.70
    Язык : English
    Default : Да
    Forced : Нет
    DURATION : 01:38:01.955000000
    NUMBER_OF_FRAMES : 141026
    NUMBER_OF_BYTES : 4098614526
    _STATISTICS_WRITING_APP : mkvmerge v7.2.0 (;On Every Street;) 32bit built on Sep 13 2014 15:42:11
    _STATISTICS_WRITING_DATE_UTC : 2014-11-02 10:36:55
    _STATISTICS_TAGS : BPS DURATION NUMBER_OF_FRAMES NUMBER_OF_BYTES
    Аудио #1
    Идентификатор : 2
    Формат : AC-3
    Формат/Информация : Audio Coding 3
    Расширение режима : CM (complete main)
    Параметр Endianness формата : Big
    Идентификатор кодека : A_AC3
    Продолжительность : 1 ч. 38 м.
    Вид битрейта : Постоянный
    Битрейт : 448 Кбит/сек
    Каналы : 6 каналов
    Расположение каналов : Front: L C R, Side: L R, LFE
    Частота : 48,0 КГц
    Битовая глубина : 16 бит
    Метод сжатия : С потерями
    Размер потока : 314 Мбайт (5%)
    Заголовок : Дублированный
    Язык : Russian
    Default : Да
    Forced : Нет
    Аудио #2
    Идентификатор : 3
    Формат : AC-3
    Формат/Информация : Audio Coding 3
    Расширение режима : CM (complete main)
    Параметр Endianness формата : Big
    Идентификатор кодека : A_AC3
    Продолжительность : 1 ч. 38 м.
    Вид битрейта : Постоянный
    Битрейт : 384 Кбит/сек
    Каналы : 6 каналов
    Расположение каналов : Front: L C R, Side: L R, LFE
    Частота : 48,0 КГц
    Битовая глубина : 16 бит
    Метод сжатия : С потерями
    Размер потока : 269 Мбайт (4%)
    Заголовок : Многоголосый закадровый
    Язык : Russian
    Default : Нет
    Forced : Нет
    Аудио #3
    Идентификатор : 4
    Формат : DTS
    Формат/Информация : Digital Theater Systems
    Режим : 16
    Параметр Endianness формата : Big
    Идентификатор кодека : A_DTS
    Продолжительность : 1 ч. 38 м.
    Вид битрейта : Постоянный
    Битрейт : 1509 Кбит/сек
    Каналы : 6 каналов
    Расположение каналов : Front: L C R, Side: L R, LFE
    Частота : 48,0 КГц
    Битовая глубина : 16 бит
    Метод сжатия : С потерями
    Размер потока : 1,03 Гбайт (18%)
    Заголовок : Одноголосый закадровый
    Язык : Russian
    Default : Нет
    Forced : Нет
    Аудио #4
    Идентификатор : 5
    Формат : AC-3
    Формат/Информация : Audio Coding 3
    Расширение режима : CM (complete main)
    Параметр Endianness формата : Big
    Идентификатор кодека : A_AC3
    Продолжительность : 1 ч. 38 м.
    Вид битрейта : Постоянный
    Битрейт : 640 Кбит/сек
    Каналы : 6 каналов
    Расположение каналов : Front: L C R, Side: L R, LFE
    Частота : 48,0 КГц
    Битовая глубина : 16 бит
    Метод сжатия : С потерями
    Размер потока : 449 Мбайт (7%)
    Заголовок : Оригинальный
    Язык : English
    Default : Нет
    Forced : Нет
    Текст #1
    Идентификатор : 6
    Формат : UTF-8
    Идентификатор кодека : S_TEXT/UTF8
    Идентификатор кодека/Информация : UTF-8 Plain Text
    Заголовок : Русские
    Язык : Russian
    Default : Нет
    Forced : Нет
    Текст #2
    Идентификатор : 7
    Формат : UTF-8
    Идентификатор кодека : S_TEXT/UTF8
    Идентификатор кодека/Информация : UTF-8 Plain Text
    Заголовок : English
    Язык : English
    Default : Нет
    Forced : Нет

    Скриншоты для ознакомления

    Пункт назначения 2/Final Destination 2 (2002)

    Детально о кино
    Русское название:Пункт назначения 2
    Русское название в мировом прокате:Final Destination 2
    Создали в:2002
    Категория жанра:ужасы, триллер
    Главный режиссер:Дэвид Р. Эллис
    Актеры:Эли Лартер, А.Дж. Кук, Майкл Лэндис, Дэвид Петкау, Джеймс Кирк, Линда Бойд, Киган Коннор Трейси, Джонатан Черри, Терренс Т.К. Карсон, Жустина Мачадо
    Сюжет фильма:Решив провести уикэнд с друзьями подальше от дома, Кимберли Корман становится невольным свидетелем жуткой автокатастрофы! На скоростной магистрали грузовик теряет управление, а вместе с ним и груз, что приводит к серии столкновений автомобилей и множеству жертв, среди которых она сама. Секунду спустя Кимберли снова чувствует биение своего сердца: она жива и по-прежнему за рулем машины. Видение? А может быть, предупреждение?
    Однако теперь и Кимберли, и водители, чьи машины не смогли выехать из-за нее к своей смерти, обречены — старуха с косой отказывается вычеркивать их из своего списка…

    Снималось в:USA, Canada
    Киностудия:Universal New Line Cinema, Zide-Perry Productions
    Время просмотра:01:30:09
    Перевод текста:профессиональный (полное дублирование), профессиональный (многоголосый закадровый), авторский (одноголосый закадровый)
    Субтитры:русские, английские
    Файл
    Кодек для видео:MPEG-4 AVC/H.264
    Качество фильма:BDRip 720p
    Информация о видео:1280 x 720, (16:9), 5 405 kbps, 23.976 fps, 0.245 b/px
    Информация о звуке:
    Информация о звуке # 1:AC3, 6 ch, 448 kbps, 48 000 Hz Дублированный
    Информация о звуке # 2:АС3, 6 ch, 448 kbps, 48 000 Hz Многоголосый закадровый (Киномания)
    Информация о звуке # 3:DTS, 6 ch, 1509 kbps, 48 000 Hz Одноголосый закадровый (А.Гаврилов)
    Информация о звуке # 4:DTS, 6 ch, 1509 kbps, 48 000 Hz Оригинальный
    MediaInfo
    Общее
    Уникальный идентификатор : 228270496138793704856823462395886567029 (0xABBB4C63823EEA5AB540E1206015FE75)
    Полное имя : D:Пункт назначения. Коллекция BDRip 720p2002 Пункт назначения 2 BDRip 720p.mkv
    Формат : Matroska
    Версия формата : Version 4/Version 2
    Размер файла : 5,87 Гбайт
    Продолжительность : 1 ч. 30 м.
    Общий поток : 9321 Кбит/сек
    Название фильма : Пункт назначения 2/Final Destination 2 (2002) BDRip 720p
    Дата кодирования : UTC 2014-11-02 10:51:06
    Программа кодирования : mkvmerge v7.2.0 (;On Every Street;) 32bit built on Sep 13 2014 15:42:11
    Библиотека кодирования : libebml v1.3.0 + libmatroska v1.4.1
    DURATION : 01:24:53.385000000
    NUMBER_OF_FRAMES : 1060
    NUMBER_OF_BYTES : 34225
    _STATISTICS_WRITING_APP : mkvmerge v7.2.0 (;On Every Street;) 32bit built on Sep 13 2014 15:42:11
    _STATISTICS_WRITING_DATE_UTC : 2014-11-02 10:51:06
    _STATISTICS_TAGS : BPS DURATION NUMBER_OF_FRAMES NUMBER_OF_BYTES
    Видео
    Идентификатор : 1
    Формат : AVC
    Формат/Информация : Advanced Video Codec
    Профиль формата : High@L4.1
    Параметр CABAC формата : Да
    Параметр ReFrames формата : 6 кадров
    Параметр GOP формата : N=1
    Идентификатор кодека : V_MPEG4/ISO/AVC
    Продолжительность : 1 ч. 30 м.
    Битрейт : 5405 Кбит/сек
    Ширина : 1280 пикселей
    Высота : 720 пикселей
    Соотношение сторон : 16:9
    Режим частоты кадров : Постоянный
    Частота кадров : 23,976 кадра/сек
    Цветовое пространство : YUV
    Субдискретизация насыщенности : 4:2:0
    Битовая глубина : 8 бит
    Тип развёртки : Прогрессивная
    Бит/(Пиксели*Кадры) : 0.245
    Размер потока : 3,29 Гбайт (56%)
    Заголовок : 2002 Пункт назначения 2/Final Destination 2 BDRip 720p
    Библиотека кодирования : x264 core 68 r1195M 5d75a9b
    Настройки программы : cabac=1/ref=6/deblock=1:-3:-3/analyse=0x3:0x113/me=umh/subme=10/psy_rd=1.1:0.0/mixed_ref=1/me_range=64/chroma_me=1/trellis=2/8x8dct=1/cqm=0/deadzone=21,11/chroma_qp_offset=-2/threads=6/nr=0/decimate=1/mbaff=0/bframes=8/b_pyramid=1/b_adapt=2/b_bias=0/direct=3/wpredb=1/keyint=250/keyint_min=25/scenecut=40/rc=2pass/bitrate=5405/ratetol=1.0/qcomp=0.60/qpmin=10/qpmax=51/qpstep=4/cplxblur=20.0/qblur=0.5/ip_ratio=1.40/pb_ratio=1.30/aq=1:0.80
    Язык : English
    Default : Да
    Forced : Нет
    DURATION : 01:30:09.567000000
    NUMBER_OF_FRAMES : 129700
    NUMBER_OF_BYTES : 3654170906
    _STATISTICS_WRITING_APP : mkvmerge v7.2.0 (;On Every Street;) 32bit built on Sep 13 2014 15:42:11
    _STATISTICS_WRITING_DATE_UTC : 2014-11-02 10:51:06
    _STATISTICS_TAGS : BPS DURATION NUMBER_OF_FRAMES NUMBER_OF_BYTES
    Аудио #1
    Идентификатор : 2
    Формат : AC-3
    Формат/Информация : Audio Coding 3
    Расширение режима : CM (complete main)
    Параметр Endianness формата : Big
    Идентификатор кодека : A_AC3
    Продолжительность : 1 ч. 30 м.
    Вид битрейта : Постоянный
    Битрейт : 448 Кбит/сек
    Каналы : 6 каналов
    Расположение каналов : Front: L C R, Side: L R, LFE
    Частота : 48,0 КГц
    Битовая глубина : 16 бит
    Метод сжатия : С потерями
    Размер потока : 289 Мбайт (5%)
    Заголовок : Дублированный
    Язык : Russian
    Default : Да
    Forced : Нет
    Аудио #2
    Идентификатор : 3
    Формат : AC-3
    Формат/Информация : Audio Coding 3
    Расширение режима : CM (complete main)
    Параметр Endianness формата : Big
    Идентификатор кодека : A_AC3
    Продолжительность : 1 ч. 30 м.
    Вид битрейта : Постоянный
    Битрейт : 448 Кбит/сек
    Каналы : 6 каналов
    Расположение каналов : Front: L C R, Side: L R, LFE
    Частота : 48,0 КГц
    Битовая глубина : 16 бит
    Метод сжатия : С потерями
    Размер потока : 289 Мбайт (5%)
    Заголовок : Многоголосый закадровый
    Язык : Russian
    Default : Нет
    Forced : Нет
    Аудио #3
    Идентификатор : 4
    Формат : DTS
    Формат/Информация : Digital Theater Systems
    Режим : 16
    Параметр Endianness формата : Big
    Идентификатор кодека : A_DTS
    Продолжительность : 1 ч. 30 м.
    Вид битрейта : Постоянный
    Битрейт : 1509 Кбит/сек
    Каналы : 6 каналов
    Расположение каналов : Front: L C R, Side: L R, LFE
    Частота : 48,0 КГц
    Битовая глубина : 24 бит
    Метод сжатия : С потерями
    Размер потока : 973 Мбайт (16%)
    Заголовок : Одноголосый закадровый
    Язык : Russian
    Default : Нет
    Forced : Нет
    Аудио #4
    Идентификатор : 5
    Формат : DTS
    Формат/Информация : Digital Theater Systems
    Режим : 16
    Параметр Endianness формата : Big
    Идентификатор кодека : A_DTS
    Продолжительность : 1 ч. 30 м.
    Вид битрейта : Постоянный
    Битрейт : 1509 Кбит/сек
    Каналы : 6 каналов
    Расположение каналов : Front: L C R, Side: L R, LFE
    Частота : 48,0 КГц
    Битовая глубина : 24 бит
    Метод сжатия : С потерями
    Размер потока : 973 Мбайт (16%)
    Заголовок : Оригинальный
    Язык : English
    Default : Нет
    Forced : Нет
    Текст #1
    Идентификатор : 6
    Формат : UTF-8
    Идентификатор кодека : S_TEXT/UTF8
    Идентификатор кодека/Информация : UTF-8 Plain Text
    Заголовок : Русские
    Язык : Russian
    Default : Нет
    Forced : Нет
    Текст #2
    Идентификатор : 7
    Формат : UTF-8
    Идентификатор кодека : S_TEXT/UTF8
    Идентификатор кодека/Информация : UTF-8 Plain Text
    Заголовок : English
    Язык : English
    Default : Нет
    Forced : Нет

    Скриншоты для ознакомления

    Пункт назначения 3/Final Destination 3 (2006)

    Детально о кино
    Русское название:Пункт назначения 3
    Русское название в мировом прокате:Final Destination 3
    Создали в:2006
    Категория жанра:ужасы, триллер
    Главный режиссер:Джеймс Вонг
    Актеры:Мэри Элизабет Уинстэд, Райан Мерриман, Крис Лемке, Алекс Джонсон, Сэм Истон, Джесси Мосс, Джина Холден, Тексас Бэттл, Челан Симмонс, Кристал Лоу
    Сюжет фильма:Главная героиня фильма — старшеклассница Венди Кристенсен, у которой однажды возникло предчувствие, что она и ее друзья станут жертвами несчастного случая, который произойдет на американских горках.
    Когда же самые страшные опасения Венди подтверждаются, то те, кто сумел все-таки обмануть смерть и выжить, оказываются вынужденными расплачиваться за то, что изменили свою судьбу…

    Снималось в:Germany, USA, Canada
    Киностудия:New Line Cinema, Hard Eight Pictures, Kumar Mobiliengesellschaft mbH Co. Projekt Nr. 1 KG
    Время просмотра:01:32:49
    Перевод текста:профессиональный (полное дублирование), профессиональный (многоголосый закадровый), авторский (одноголосый закадровый)
    Субтитры:русские, английские
    Файл
    Кодек для видео:MPEG-4 AVC/H.264
    Качество фильма:BDRip 720p
    Информация о видео:1280 x 720, (16:9), 507 kbps, 23.976 fps, 0.236 b/px
    Информация о звуке:
    Информация о звуке # 1:АС3, 6 ch, 384 kbps, 48 000 Hz Дублированный
    Информация о звуке # 2:AC3, 6 ch, 448 kbps, 48 000 Hz Многоголосый закадровый (Киномания)
    Информация о звуке # 3:DTS, 6 ch, 1509 kbps, 48 000 Hz Одноголосый закадровый (А.Гаврилов)
    Информация о звуке # 4:DTS, 6 ch, 1509 kbps, 48 000 Hz Оригинальный
    MediaInfo
    Общее
    Уникальный идентификатор : 220922834265665994353625977599817498319 (0xA63430B05D689BF1B5F5508F959D3ECF)
    Полное имя : D:Пункт назначения. Коллекция BDRip 720p2006 Пункт назначения 3 BDRip 720p.mkv
    Формат : Matroska
    Версия формата : Version 4/Version 2
    Размер файла : 5,87 Гбайт
    Продолжительность : 1 ч. 32 м.
    Общий поток : 9059 Кбит/сек
    Название фильма : Пункт назначения 3/Final Destination 3 (2006) BDRip 720p
    Дата кодирования : UTC 2014-11-02 11:03:43
    Программа кодирования : mkvmerge v7.2.0 (;On Every Street;) 32bit built on Sep 13 2014 15:42:11
    Библиотека кодирования : libebml v1.3.0 + libmatroska v1.4.1
    DURATION : 01:26:20.282000000
    NUMBER_OF_FRAMES : 1371
    NUMBER_OF_BYTES : 38768
    _STATISTICS_WRITING_APP : mkvmerge v7.2.0 (;On Every Street;) 32bit built on Sep 13 2014 15:42:11
    _STATISTICS_WRITING_DATE_UTC : 2014-11-02 11:03:43
    _STATISTICS_TAGS : BPS DURATION NUMBER_OF_FRAMES NUMBER_OF_BYTES
    Видео
    Идентификатор : 1
    Формат : AVC
    Формат/Информация : Advanced Video Codec
    Профиль формата : High@L4.1
    Параметр CABAC формата : Да
    Параметр ReFrames формата : 6 кадров
    Параметр GOP формата : N=1
    Идентификатор кодека : V_MPEG4/ISO/AVC
    Продолжительность : 1 ч. 32 м.
    Битрейт : 5207 Кбит/сек
    Ширина : 1280 пикселей
    Высота : 720 пикселей
    Соотношение сторон : 16:9
    Режим частоты кадров : Постоянный
    Частота кадров : 23,976 кадра/сек
    Цветовое пространство : YUV
    Субдискретизация насыщенности : 4:2:0
    Битовая глубина : 8 бит
    Тип развёртки : Прогрессивная
    Бит/(Пиксели*Кадры) : 0.236
    Размер потока : 3,26 Гбайт (56%)
    Заголовок : 2006 Пункт назначения 3/Final Destination 3 BDRip 720p
    Библиотека кодирования : x264 core 68 r1195M 5d75a9b
    Настройки программы : cabac=1/ref=6/deblock=1:-3:-3/analyse=0x3:0x113/me=umh/subme=10/psy_rd=1.2:0.0/mixed_ref=1/me_range=64/chroma_me=1/trellis=2/8x8dct=1/cqm=0/deadzone=21,11/chroma_qp_offset=-2/threads=6/nr=0/decimate=1/mbaff=0/bframes=8/b_pyramid=1/b_adapt=2/b_bias=0/direct=3/wpredb=1/keyint=250/keyint_min=25/scenecut=40/rc=2pass/bitrate=5207/ratetol=1.0/qcomp=0.60/qpmin=10/qpmax=51/qpstep=4/cplxblur=20.0/qblur=0.5/ip_ratio=1.40/pb_ratio=1.30/aq=1:0.60
    Язык : English
    Default : Да
    Forced : Нет
    DURATION : 01:32:48.934000000
    NUMBER_OF_FRAMES : 133521
    NUMBER_OF_BYTES : 3623959301
    _STATISTICS_WRITING_APP : mkvmerge v7.2.0 (;On Every Street;) 32bit built on Sep 13 2014 15:42:11
    _STATISTICS_WRITING_DATE_UTC : 2014-11-02 11:03:43
    _STATISTICS_TAGS : BPS DURATION NUMBER_OF_FRAMES NUMBER_OF_BYTES
    Аудио #1
    Идентификатор : 2
    Формат : AC-3
    Формат/Информация : Audio Coding 3
    Расширение режима : CM (complete main)
    Параметр Endianness формата : Big
    Идентификатор кодека : A_AC3
    Продолжительность : 1 ч. 32 м.
    Вид битрейта : Постоянный
    Битрейт : 384 Кбит/сек
    Каналы : 6 каналов
    Расположение каналов : Front: L C R, Side: L R, LFE
    Частота : 48,0 КГц
    Битовая глубина : 16 бит
    Метод сжатия : С потерями
    Размер потока : 255 Мбайт (4%)
    Заголовок : Дублированный
    Язык : Russian
    Default : Да
    Forced : Нет
    Аудио #2
    Идентификатор : 3
    Формат : AC-3
    Формат/Информация : Audio Coding 3
    Расширение режима : CM (complete main)
    Параметр Endianness формата : Big
    Идентификатор кодека : A_AC3
    Продолжительность : 1 ч. 32 м.
    Вид битрейта : Постоянный
    Битрейт : 448 Кбит/сек
    Каналы : 6 каналов
    Расположение каналов : Front: L C R, Side: L R, LFE
    Частота : 48,0 КГц
    Битовая глубина : 16 бит
    Метод сжатия : С потерями
    Размер потока : 297 Мбайт (5%)
    Заголовок : Многоголосый закадровый
    Язык : Russian
    Default : Нет
    Forced : Нет
    Аудио #3
    Идентификатор : 4
    Формат : DTS
    Формат/Информация : Digital Theater Systems
    Режим : 16
    Параметр Endianness формата : Big
    Идентификатор кодека : A_DTS
    Продолжительность : 1 ч. 32 м.
    Вид битрейта : Постоянный
    Битрейт : 1509 Кбит/сек
    Каналы : 6 каналов
    Расположение каналов : Front: L C R, Side: L R, LFE
    Частота : 48,0 КГц
    Битовая глубина : 24 бит
    Метод сжатия : С потерями
    Размер потока : 1002 Мбайт (17%)
    Заголовок : Одноголосый закадровый
    Язык : Russian
    Default : Нет
    Forced : Нет
    Аудио #4
    Идентификатор : 5
    Формат : DTS
    Формат/Информация : Digital Theater Systems
    Режим : 16
    Параметр Endianness формата : Big
    Идентификатор кодека : A_DTS
    Продолжительность : 1 ч. 32 м.
    Вид битрейта : Постоянный
    Битрейт : 1509 Кбит/сек
    Каналы : 6 каналов
    Расположение каналов : Front: L C R, Side: L R, LFE
    Частота : 48,0 КГц
    Битовая глубина : 24 бит
    Метод сжатия : С потерями
    Размер потока : 1002 Мбайт (17%)
    Заголовок : Оригинальный
    Язык : English
    Default : Нет
    Forced : Нет
    Текст #1
    Идентификатор : 6
    Формат : UTF-8
    Идентификатор кодека : S_TEXT/UTF8
    Идентификатор кодека/Информация : UTF-8 Plain Text
    Заголовок : Русские
    Язык : Russian
    Default : Нет
    Forced : Нет
    Текст #2
    Идентификатор : 7
    Формат : UTF-8
    Идентификатор кодека : S_TEXT/UTF8
    Идентификатор кодека/Информация : UTF-8 Plain Text
    Заголовок : English
    Язык : English
    Default : Нет
    Forced : Нет

    Скриншоты для ознакомления

    Пункт назначения 4/The Final Destination (2009)

    Детально о кино
    Русское название:Пункт назначения 4
    Русское название в мировом прокате:The Final Destination
    Создали в:2009
    Категория жанра:ужасы, триллер
    Главный режиссер:Дэвид Р. Эллис
    Актеры:Бобби Кампо, Шантель Ван Сантен, Ник Зано, Хейли Уэбб, Майкелти Уильямсон, Криста Аллен, Эндрю Фисцелла, Джастин Уэлборн, Стефани Онор, Лара Грайс
    Сюжет фильма:История на этот раз вращается вокруг Ника О`Бэннона, к молодому человеку приходит видение — на автогонках произойдет ужасная трагедия, жертвами которой станут его друзья и он сам. Как и прежде группе счастливчиков, благодаря Нику, удается выжить, но смерть вовсе не спешит вычеркивать их из своего списка...

    Снималось в:USA
    Киностудия:New Line Cinema, Practical Pictures, Parallel Zide
    Время просмотра:01:21:46
    Перевод текста:профессиональный (полное дублирование)
    Субтитры:русские, английские
    Файл
    Кодек для видео:MPEG-4 AVC/H.264
    Качество фильма:BDRip 720p
    Информация о видео:1280 x 532, (2,40:1), 6 140 kbps, 23.976 fps, 0.376 b/px
    Информация о звуке:
    Информация о звуке # 1:AC3, 6 ch, 448 kbps, 48 000 Hz Дублированный
    Информация о звуке # 2:DTS, 6 ch, 1509 kbps, 48 000 Hz Оригинальный
    MediaInfo
    Общее
    Уникальный идентификатор : 245309823853134594779876219131496711154 (0xB88CF41B452F3198BF8FA73E58CF43F2)
    Полное имя : D:Пункт назначения. Коллекция BDRip 720p2009 Пункт назначения 4 BDRip 720p.mkv
    Формат : Matroska
    Версия формата : Version 4/Version 2
    Размер файла : 4,63 Гбайт
    Продолжительность : 1 ч. 21 м.
    Общий поток : 8092 Кбит/сек
    Название фильма : Пункт назначения 4/The Final Destination (2009) BDRip 720p
    Дата кодирования : UTC 2014-11-02 11:15:01
    Программа кодирования : mkvmerge v7.2.0 (;On Every Street;) 32bit built on Sep 13 2014 15:42:11
    Библиотека кодирования : libebml v1.3.0 + libmatroska v1.4.1
    DURATION : 01:15:30.558000000
    NUMBER_OF_FRAMES : 776
    NUMBER_OF_BYTES : 26597
    _STATISTICS_WRITING_APP : mkvmerge v7.2.0 (;On Every Street;) 32bit built on Sep 13 2014 15:42:11
    _STATISTICS_WRITING_DATE_UTC : 2014-11-02 11:15:01
    _STATISTICS_TAGS : BPS DURATION NUMBER_OF_FRAMES NUMBER_OF_BYTES
    Видео
    Идентификатор : 1
    Формат : AVC
    Формат/Информация : Advanced Video Codec
    Профиль формата : High@L4.1
    Параметр CABAC формата : Да
    Параметр ReFrames формата : 5 кадров
    Идентификатор кодека : V_MPEG4/ISO/AVC
    Продолжительность : 1 ч. 21 м.
    Битрейт : 6140 Кбит/сек
    Ширина : 1280 пикселей
    Высота : 532 пикселя
    Соотношение сторон : 2,40:1
    Режим частоты кадров : Постоянный
    Частота кадров : 23,976 кадра/сек
    Цветовое пространство : YUV
    Субдискретизация насыщенности : 4:2:0
    Битовая глубина : 8 бит
    Тип развёртки : Прогрессивная
    Бит/(Пиксели*Кадры) : 0.376
    Размер потока : 3,41 Гбайт (74%)
    Заголовок : 2009 Пункт назначения 4/The Final Destination BDRip 720p
    Библиотека кодирования : x264 core 80 r1376M 3feaec2
    Настройки программы : cabac=1/ref=5/deblock=1:-2:-2/analyse=0x3:0x113/me=umh/subme=10/psy=1/psy_rd=0.9:0.0/mixed_ref=1/me_range=64/chroma_me=1/trellis=2/8x8dct=1/cqm=0/deadzone=21,11/fast_pskip=0/chroma_qp_offset=-2/threads=6/sliced_threads=0/nr=0/decimate=1/mbaff=0/constrained_intra=0/bframes=6/b_pyramid=0/b_adapt=2/b_bias=0/direct=3/wpredb=1/wpredp=2/keyint=250/keyint_min=25/scenecut=40/rc=2pass/mbtree=0/bitrate=6140/ratetol=1.0/qcomp=0.60/qpmin=10/qpmax=51/qpstep=4/cplxblur=20.0/qblur=0.5/ip_ratio=1.40/pb_ratio=1.30/aq=1:0.80
    Язык : English
    Default : Да
    Forced : Нет
    DURATION : 01:21:46.857000000
    NUMBER_OF_FRAMES : 117647
    NUMBER_OF_BYTES : 3763373716
    _STATISTICS_WRITING_APP : mkvmerge v7.2.0 (;On Every Street;) 32bit built on Sep 13 2014 15:42:11
    _STATISTICS_WRITING_DATE_UTC : 2014-11-02 11:15:01
    _STATISTICS_TAGS : BPS DURATION NUMBER_OF_FRAMES NUMBER_OF_BYTES
    Аудио #1
    Идентификатор : 2
    Формат : AC-3
    Формат/Информация : Audio Coding 3
    Расширение режима : CM (complete main)
    Параметр Endianness формата : Big
    Идентификатор кодека : A_AC3
    Продолжительность : 1 ч. 21 м.
    Вид битрейта : Постоянный
    Битрейт : 448 Кбит/сек
    Каналы : 6 каналов
    Расположение каналов : Front: L C R, Side: L R, LFE
    Частота : 48,0 КГц
    Битовая глубина : 16 бит
    Метод сжатия : С потерями
    Размер потока : 262 Мбайт (6%)
    Заголовок : Дублированный
    Язык : Russian
    Default : Да
    Forced : Нет
    Аудио #2
    Идентификатор : 3
    Формат : DTS
    Формат/Информация : Digital Theater Systems
    Режим : 16
    Параметр Endianness формата : Big
    Идентификатор кодека : A_DTS
    Продолжительность : 1 ч. 21 м.
    Вид битрейта : Постоянный
    Битрейт : 1509 Кбит/сек
    Каналы : 6 каналов
    Расположение каналов : Front: L C R, Side: L R, LFE
    Частота : 48,0 КГц
    Битовая глубина : 24 бит
    Метод сжатия : С потерями
    Размер потока : 883 Мбайт (19%)
    Заголовок : Оригинальный
    Язык : English
    Default : Нет
    Forced : Нет
    Текст #1
    Идентификатор : 4
    Формат : UTF-8
    Идентификатор кодека : S_TEXT/UTF8
    Идентификатор кодека/Информация : UTF-8 Plain Text
    Заголовок : Русские
    Язык : Russian
    Default : Нет
    Forced : Нет
    Текст #2
    Идентификатор : 5
    Формат : UTF-8
    Идентификатор кодека : S_TEXT/UTF8
    Идентификатор кодека/Информация : UTF-8 Plain Text
    Заголовок : English
    Язык : English
    Default : Нет
    Forced : Нет

    Скриншоты для ознакомления

    Пункт назначения 5/Final Destination 5 (2011)

    Детально о кино
    Русское название:Пункт назначения 5
    Русское название в мировом прокате:Final Destination 5
    Создали в:2011
    Категория жанра:ужасы, триллер
    Главный режиссер:Стивен Куэйл
    Актеры:Николас Д’Агосто, Эмма Белл, Майлз Фишер, Эллен Ро, Жаклин МакИннес Вуд, П.Дж. Бирн, Арлен Эскарпета, Дэвид Кокнер, Кортни Б. Вэнс, Тони Тодд
    Сюжет фильма:У Сэма Лоутона происходит жуткое видение: подвесной мост, на котором он находится со своими друзьями, рушится, и многие люди, включая его самого, погибают. Сэм начинает паниковать и уговаривает своих друзей и ещё нескольких счастливчиков уйти с моста. И как раз вовремя: как и предвидел Сэм, мост рушится на их глазах и множество людей погибает. Однако Сэм и его девушка Молли понимают, что смерть дала им лишь отсрочку, так как выжившие начинают погибать один за другим. Он должен понять, как обманув смерть однажды, обмануть её ещё раз, прежде чем настанет его очередь...

    Снималось в:USA, Canada
    Киностудия:Universal New Line Cinema, Practical Pictures, Parallel Zide
    Время просмотра:01:31:50
    Перевод текста:профессиональный (полное дублирование)
    Субтитры:русские, английские
    Файл
    Кодек для видео:MPEG-4 AVC/H.264
    Качество фильма:BDRip 720p
    Информация о видео:1280 x 534, (2,40:1), 5 001 kbps, 23.976 fps, 0.305 b/px
    Информация о звуке:
    Информация о звуке # 1:AC3, 6 ch, 640 kbps, 48 000 Hz Дублированный
    Информация о звуке # 2:DTS, 6 ch, 1509 kbps, 48 000 Hz Оригинальный
    MediaInfo
    Общее
    Уникальный идентификатор : 244563561285152662092269084019321598256 (0xB7FD3A856E8280D1A179A2356415F130)
    Полное имя : D:Пункт назначения. Коллекция BDRip 720p2011 Пункт назначения 5 BDRip 720p.mkv
    Формат : Matroska
    Версия формата : Version 4/Version 2
    Размер файла : 4,59 Гбайт
    Продолжительность : 1 ч. 31 м.
    Общий поток : 7150 Кбит/сек
    Название фильма : Пункт назначения 5/Final Destination 5 (2011) BDRip 720p
    Дата кодирования : UTC 2014-11-02 11:28:46
    Программа кодирования : mkvmerge v7.2.0 (;On Every Street;) 32bit built on Sep 13 2014 15:42:11
    Библиотека кодирования : libebml v1.3.0 + libmatroska v1.4.1
    DURATION : 01:24:14.258000000
    NUMBER_OF_FRAMES : 1009
    NUMBER_OF_BYTES : 32088
    _STATISTICS_WRITING_APP : mkvmerge v7.2.0 (;On Every Street;) 32bit built on Sep 13 2014 15:42:11
    _STATISTICS_WRITING_DATE_UTC : 2014-11-02 11:28:46
    _STATISTICS_TAGS : BPS DURATION NUMBER_OF_FRAMES NUMBER_OF_BYTES
    Видео
    Идентификатор : 1
    Формат : AVC
    Формат/Информация : Advanced Video Codec
    Профиль формата : High@L4.1
    Параметр CABAC формата : Да
    Параметр ReFrames формата : 12 кадров
    Идентификатор кодека : V_MPEG4/ISO/AVC
    Продолжительность : 1 ч. 31 м.
    Битрейт : 5001 Кбит/сек
    Ширина : 1280 пикселей
    Высота : 534 пикселя
    Соотношение сторон : 2,40:1
    Режим частоты кадров : Постоянный
    Частота кадров : 23,976 кадра/сек
    Цветовое пространство : YUV
    Субдискретизация насыщенности : 4:2:0
    Битовая глубина : 8 бит
    Тип развёртки : Прогрессивная
    Бит/(Пиксели*Кадры) : 0.305
    Размер потока : 3,12 Гбайт (68%)
    Заголовок : 2011 Пункт назначения 5/Final Destination 5 BDRip 720p
    Библиотека кодирования : x264 core 120 r2120 0c7dab9
    Настройки программы : cabac=1/ref=12/deblock=1:-3:-3/analyse=0x3:0x113/me=umh/subme=11/psy=1/psy_rd=1.00:0.00/mixed_ref=1/me_range=48/chroma_me=1/trellis=2/8x8dct=1/cqm=0/deadzone=21,11/fast_pskip=0/chroma_qp_offset=-2/threads=12/sliced_threads=0/nr=0/decimate=0/interlaced=0/bluray_compat=0/constrained_intra=0/bframes=8/b_pyramid=2/b_adapt=2/b_bias=0/direct=3/weightb=1/open_gop=0/weightp=2/keyint=250/keyint_min=24/scenecut=40/intra_refresh=0/rc_lookahead=60/rc=2pass/mbtree=0/bitrate=5001/ratetol=1.0/qcomp=0.70/qpmin=0/qpmax=69/qpstep=4/cplxblur=20.0/qblur=0.5/vbv_maxrate=50000/vbv_bufsize=62500/nal_hrd=none/ip_ratio=1.30/pb_ratio=1.20/aq=2:0.90
    Язык : English
    Default : Да
    Forced : Нет
    Коэффициенты матрицы : BT.709
    DURATION : 01:31:49.880000000
    NUMBER_OF_FRAMES : 132105
    NUMBER_OF_BYTES : 3442875569
    _STATISTICS_WRITING_APP : mkvmerge v7.2.0 (;On Every Street;) 32bit built on Sep 13 2014 15:42:11
    _STATISTICS_WRITING_DATE_UTC : 2014-11-02 11:28:46
    _STATISTICS_TAGS : BPS DURATION NUMBER_OF_FRAMES NUMBER_OF_BYTES
    Аудио #1
    Идентификатор : 2
    Формат : AC-3
    Формат/Информация : Audio Coding 3
    Расширение режима : CM (complete main)
    Параметр Endianness формата : Big
    Идентификатор кодека : A_AC3
    Продолжительность : 1 ч. 31 м.
    Вид битрейта : Постоянный
    Битрейт : 640 Кбит/сек
    Каналы : 6 каналов
    Расположение каналов : Front: L C R, Side: L R, LFE
    Частота : 48,0 КГц
    Битовая глубина : 16 бит
    Метод сжатия : С потерями
    Размер потока : 420 Мбайт (9%)
    Заголовок : Дублированный
    Язык : Russian
    Default : Да
    Forced : Нет
    Аудио #2
    Идентификатор : 3
    Формат : DTS
    Формат/Информация : Digital Theater Systems
    Режим : 16
    Параметр Endianness формата : Big
    Идентификатор кодека : A_DTS
    Продолжительность : 1 ч. 31 м.
    Вид битрейта : Постоянный
    Битрейт : 1509 Кбит/сек
    Каналы : 6 каналов
    Расположение каналов : Front: L C R, Side: L R, LFE
    Частота : 48,0 КГц
    Битовая глубина : 24 бит
    Метод сжатия : С потерями
    Размер потока : 991 Мбайт (21%)
    Заголовок : Оригинальный
    Язык : English
    Default : Нет
    Forced : Нет
    Текст #1
    Идентификатор : 4
    Формат : UTF-8
    Идентификатор кодека : S_TEXT/UTF8
    Идентификатор кодека/Информация : UTF-8 Plain Text
    Заголовок : Русские
    Язык : Russian
    Default : Нет
    Forced : Нет
    Текст #2
    Идентификатор : 5
    Формат : UTF-8
    Идентификатор кодека : S_TEXT/UTF8
    Идентификатор кодека/Информация : UTF-8 Plain Text
    Заголовок : English
    Язык : English
    Default : Нет
    Forced : Нет

    Скриншоты для ознакомления

    Размер скачиваемого торрента: 26.82 GB (28793791118 Bytes)

    Пункт назначения: Коллекция/Final Destination: The Collection (2000-2011) BDRip 720p торрент скачать бесплатно
    загрузка...
    Рейтинг →
     (голосов: 1, оценка 5/5, голосовать можно 1 раз )

    Другие торренты по теме:

  • Пункт назначения 2 / Final Destination 2 (2002) BDRemux 1080p торрент скачать бесплатно
  • Курс на Токио / Пункт назначения - Токио / Destination Tokyo (1943) DVDRip от SergV | A торрент скачать бесплатно
  • Пункт назначения 3 / Final Destination 3 (2006) DVD-9 торрент скачать бесплатно
  • Пункт назначения 1-5 / Final Destination (2000-2011) BDRip-AVC от ExKinoRay торрент скачать бесплатно
  • Пункт назначения 5 / Final Destination 5 (2011) HDRip от New-Team | КПК скачать через торрент бесплатно
  • Пункт назначения 4 / Final Destination 4 (2009) HDRip от New-Team | КПК скачать через торрент бесплатно
  • Пункт назначения 3 / Final Destination 3 (2006) HDRip от New-Team | КПК скачать через торрент бесплатно
  • Пункт назначения 2 / Final Destination 2 (2002) HDRip от New-Team | КПК скачать через торрент бесплатно


    • Комментарии (0):

      Информация

      Информация

        Посетители, находящиеся в группе Гости, не могут оставлять комментарии в данной новости.

        ↓ Меню



        ↓ Опрос

        А Вы добавили сайт в закладки?
        Да
        Не


        Top 10 за неделю (Фильмы)