.
Авторизация | Регистрация
» » 7500 / 7500 (2014) HDRip-AVC от АРХАНГЕЛ | L1 торрент скачать бесплатно




    7500 / 7500 (2014) HDRip-AVC от АРХАНГЕЛ | L1 торрент скачать бесплатно

    Опубликовал: Админ | Дата: 27-02-2015, 11:10 | Просмотров: 190


    Детально о кино
    Русское название:7500
    Русское название в мировом прокате:7500
    Создали в:2014
    Категория жанра:Ужасы, Боевик, Триллер
    Главный режиссер:Такаси Симидзу
    Актеры:Райан Квантен, Эми Смарт, Лесли Бибб, Джейми Чунг, Скаут Тейлор-Комптон, Никки Уилан, Джерри Феррара, Кристиан Серратос, Алекс Фрост, Рик Келли
    Сюжет фильма:
    Высота 30 000 футов. Сбежать не возможно
    Действующие лица фильма — группа пассажиров рейса Vista Pacific 7500, совершающего перелет через Тихий океан. Мерное и тоскливое течение времени во время полета внезапно нарушается, и герои сталкиваются с некой сверхъестественной силой, вносящей не самое приятное разнообразие в замкнутом пространстве.

    Снималось в:Япония, США
    Киностудия:Co-production USA-Japan, CBS Films, Ozla Pictures, Ozla Productions
    Время просмотра:01:19:49
    Перевод текста:Любительский (одноголосый) –Хихикающий доктор
    Файл
    Кодек для видео:h.264 (MKV)
    Качество фильма:HDRip-AVC
    Информация о видео:AVC, 1024 x 552, ~2 016 Kbps
    Информация о звуке:Русский: AC-3, 2 ch, 256 Kbps/Английский: AC3, 6 ch, 512 Kbps
    Субтитры:нет
    Семпл
    Скриншоты для ознакомления
    MediaInfo
    General
    Unique ID : 189574897890416198789697922675573846175 (0x8E9ECC18E988252EB43E0AA14D38F09F)
    Complete name : D: 7500_(2014)_HDRip-AVC.mkv
    Format : Matroska
    Format version : Version 4/Version 2
    File size : 1.58 GiB
    Duration : 1h 19mn
    Overall bit rate : 2 841 Kbps
    Encoded date : UTC 2014-11-03 16:10:21
    Writing application : mkvmerge v7.2.0 (;On Every Street;) 64bit built on Sep 13 2014 15:52:10
    Writing library : libebml v1.3.0 + libmatroska v1.4.1
    DURATION : 01:19:49.056000000
    NUMBER_OF_FRAMES : 149658
    NUMBER_OF_BYTES : 306499584
    _STATISTICS_WRITING_APP : mkvmerge v7.2.0 (;On Every Street;) 64bit built on Sep 13 2014 15:52:10
    _STATISTICS_WRITING_DATE_UTC : 2014-11-03 16:10:21
    _STATISTICS_TAGS : BPS DURATION NUMBER_OF_FRAMES NUMBER_OF_BYTES
    Video
    ID : 1
    Format : AVC
    Format/Info : Advanced Video Codec
    Format profile : Main@L4.1
    Format settings, CABAC : Yes
    Format settings, ReFrames : 4 frames
    Codec ID : V_MPEG4/ISO/AVC
    Duration : 1h 19mn
    Bit rate : 2 016 Kbps
    Width : 1 024 pixels
    Height : 552 pixels
    Display aspect ratio : 1.85:1
    Frame rate mode : Constant
    Frame rate : 23.976 fps
    Color space : YUV
    Chroma subsampling : 4:2:0
    Bit depth : 8 bits
    Scan type : Progressive
    Bits/(Pixel*Frame) : 0.149
    Stream size : 1.12 GiB (71%)
    Language : English
    Default : Yes
    Forced : No
    Audio #1
    ID : 2
    Format : AC-3
    Format/Info : Audio Coding 3
    Mode extension : CM (complete main)
    Format settings, Endianness : Big
    Codec ID : A_AC3
    Duration : 1h 19mn
    Bit rate mode : Constant
    Bit rate : 256 Kbps
    Channel(s) : 2 channels
    Channel positions : Front: L R
    Sampling rate : 48.0 KHz
    Bit depth : 16 bits
    Compression mode : Lossy
    Stream size : 146 MiB (9%)
    Language : Russian
    Default : Yes
    Forced : No
    Audio #2
    ID : 3
    Format : AC-3
    Format/Info : Audio Coding 3
    Mode extension : CM (complete main)
    Format settings, Endianness : Big
    Codec ID : A_AC3
    Duration : 1h 19mn
    Bit rate mode : Constant
    Bit rate : 512 Kbps
    Channel(s) : 6 channels
    Channel positions : Front: L C R, Side: L R, LFE
    Sampling rate : 48.0 KHz
    Bit depth : 16 bits
    Compression mode : Lossy
    Stream size : 292 MiB (18%)
    Language : English
    Default : No
    Forced : No

    Релиз подготовил:
    Размер скачиваемого торрента: 1.58 GB (1700590032 Bytes)

    7500/7500 (2014) HDRip-AVC от АРХАНГЕЛ | L1 торрент скачать бесплатно
    загрузка...
    Рейтинг →
     (голосов: 1, оценка 3/5, голосовать можно 1 раз )

    Другие торренты по теме:

  • 7500 / 7500 (2014) HDRip | L1 скачать через торрент бесплатно
  • 7500 / 7500 (2014) BDRip 720p | L1 торрент скачать бесплатно
  • 7500 / 7500 (2014) BDRip 1080p от CINEMANIA | L1 скачать через торрент бесплатно


    • Комментарии (0):

      Информация

      Информация

        Посетители, находящиеся в группе Гости, не могут оставлять комментарии в данной новости.

        ↓ Меню



        ↓ Опрос

        А Вы добавили сайт в закладки?
        Да
        Не


        Top 10 за неделю (Фильмы)