.
Авторизация | Регистрация
» » Город, который боялся заката / The Town That Dreaded Sundown (2014) WEB-DL 720p | L2 торрент скачать бесплатно




    Город, который боялся заката / The Town That Dreaded Sundown (2014) WEB-DL 720p | L2 торрент скачать бесплатно

    Опубликовал: Админ | Дата: 27-02-2015, 11:10 | Просмотров: 145


    Детально о кино
    Русское название:Город, который боялся заката
    Русское название в мировом прокате:The Town That Dreaded Sundown
    Год:2014
    Категория жанра:ужасы, триллер
    Главный режиссёр:Альфонсо Гомез-Рейон
    Актеры:Эддисон Тимлин, Вероника Картрайт, Гэри Коул, Эдвард Херрманн, Джошуа Леонард, Дэнис О’Хэйр, Энтони Андерсон, Трэвис Тоуп, Энди Абеле...
    Сюжет:65 лет назад серийный убийца в маске терроризировал жителей небольшого города на западе США. И теперь так называемые убийства в лунном свете начинаются вновь. Кто за ними стоит? Подражатель, или что-то куда более зловещее? Одинокая школьница, хранящая свой собственный темный секрет, может стать ключом к пониманию происходящего…

    Снималось в:США
    Киностудия:Blumhouse Productions, Metro-Goldwyn-Mayer (MGM), Ryan Murphy Productions
    Время просмотра:01:26:03
    Перевод текста:Любительский (двухголосый, закадровый) -den904 DeadSno
    Тип видео:Matroska
    Качество фильма:WEB-DLRip 720p
    Информация о видео:AVC, 3691 Кбит/сек, 1280x532, 23,976 кадра/сек
    Информация о звуке:148.00 kHz, AC3 , 384 Кбит/сек, 6 каналов -Любительский (двухголосый, закадровый)
    Информация о звуке:248.00 kHz, AC3 , 384 Кбит/сек, 6 каналов -ENG
    Субтитры:ENG
    Главы/Чаптеры:Есть
    Семпл
    Скриншоты для ознакомления

    MI
    Общее
    Уникальный идентификатор : 210639230609021839717306597455980839330 (0x9E77A3E221F5245CAD49D359133AC1A2)
    Полное имя : C:РелизыThe.Town.That.Dreaded.Sundown.2014.L2.WEB-DL.720p.mkv
    Формат : Matroska
    Версия формата : Version 4/Version 2
    Размер файла : 2,91 Гбайт
    Продолжительность : 1 ч. 26 м.
    Общий поток : 4841 Кбит/сек
    Дата кодирования : UTC 2014-11-03 17:27:39
    Программа кодирования : mkvmerge v6.0.0 (;Coming Up For Air;) built on Jan 20 2013 09:52:00
    Библиотека кодирования : libebml v1.3.0 + libmatroska v1.4.0
    Видео
    Идентификатор : 1
    Формат : AVC
    Формат/Информация : Advanced Video Codec
    Профиль формата : Main@L3.1
    Параметр CABAC формата : Нет
    Параметр ReFrames формата : 2 кадра
    Идентификатор кодека : V_MPEG4/ISO/AVC
    Продолжительность : 1 ч. 26 м.
    Битрейт : 3977 Кбит/сек
    Ширина : 1280 пикселей
    Высота : 532 пикселя
    Соотношение сторон : 2,40:1
    Режим частоты кадров : Постоянный
    Частота кадров : 23,976 кадра/сек
    Цветовое пространство : YUV
    Субдискретизация насыщенности : 4:2:0
    Битовая глубина : 8 бит
    Тип развёртки : Прогрессивная
    Бит/(Пиксели*Кадры) : 0.244
    Размер потока : 2,39 Гбайт (82%)
    Язык : English
    Default : Да
    Forced : Нет
    Основные цвета : BT.709
    Характеристики трансфера : BT.709
    Коэффициенты матрицы : BT.709
    Аудио #1
    Идентификатор : 2
    Формат : AC-3
    Формат/Информация : Audio Coding 3
    Расширение режима : CM (complete main)
    Параметр Endianness формата : Big
    Идентификатор кодека : A_AC3
    Продолжительность : 1 ч. 26 м.
    Вид битрейта : Постоянный
    Битрейт : 384 Кбит/сек
    Каналы : 6 каналов
    Расположение каналов : Front: L C R, Side: L R, LFE
    Частота : 48,0 КГц
    Битовая глубина : 16 бит
    Метод сжатия : С потерями
    Размер потока : 236 Мбайт (8%)
    Язык : Russian
    Default : Да
    Forced : Нет
    Аудио #2
    Идентификатор : 3
    Формат : AC-3
    Формат/Информация : Audio Coding 3
    Расширение режима : CM (complete main)
    Параметр Endianness формата : Big
    Идентификатор кодека : A_AC3
    Продолжительность : 1 ч. 26 м.
    Вид битрейта : Постоянный
    Битрейт : 384 Кбит/сек
    Каналы : 6 каналов
    Расположение каналов : Front: L C R, Side: L R, LFE
    Частота : 48,0 КГц
    Битовая глубина : 16 бит
    Метод сжатия : С потерями
    Размер потока : 236 Мбайт (8%)
    Язык : English
    Default : Нет
    Forced : Нет
    Текст
    Идентификатор : 4
    Формат : UTF-8
    Идентификатор кодека : S_TEXT/UTF8
    Идентификатор кодека/Информация : UTF-8 Plain Text
    Язык : English
    Default : Нет
    Forced : Нет
    Меню
    00:00:00.000 : en:Chapter 1
    00:12:02.000 : en:Chapter 2
    00:23:08.000 : en:Chapter 3
    00:36:42.000 : en:Chapter 4
    00:47:14.000 : en:Chapter 5
    01:01:27.000 : en:Chapter 6
    01:13:29.000 : en:Chapter 7

    Релиз подготовил:
    Залил: aleksndr

    Онлайн видео Город, который боялся заката


    Размер скачиваемого торрента: 2.91 GB (3124450085 Bytes)

    Город, который боялся заката/The Town That Dreaded Sundown (2014) WEB-DL 720p | L2 торрент скачать бесплатно
    загрузка...
    Рейтинг →
     (голосов: 1, оценка 3/5, голосовать можно 1 раз )

    Другие торренты по теме:

  • Город, который боялся заката / The Town That Dreaded Sundown скачать через торрент бесплатно
  • Город, который боялся заката / The Town That Dreaded Sundown (2014) WEB-DLRip | L1 скачать через торрент бесплатно
  • Город, который боялся заката / The Town That Dreaded Sundown (2014) WEB-DL 720p | L1 скачать через торрент бесплатно
  • Город, который боялся заката / The Town That Dreaded Sundown (1976) HDRip | P2 торрент скачать бесплатно
  • Город, который боялся заката / The Town That Dreaded Sundown (2014) WEB-DLRip | L2 торрент скачать бесплатно
  • Город, который боялся заката / The Town That Dreaded Sundown (2014) WEB-DLRip от ImperiaFilm | КПК | L2 торрент скачать бесплатно
  • Игорь Корнилюк - Город которого нет (Звёзды Дорожного радио 2014) / 2014 / РУ / DVB скачать торрент бесплатно
  • Город, в котором ты живешь / Kimi no Iru Machi (2013) HDTV 720p | L2 торрент скачать бесплатно


    • Комментарии (0):

      Информация

      Информация

        Посетители, находящиеся в группе Гости, не могут оставлять комментарии в данной новости.

        ↓ Меню



        ↓ Опрос

        А Вы добавили сайт в закладки?
        Да
        Не


        Top 10 за неделю (Фильмы)