.
Авторизация | Регистрация
» » Геракл / Hercules (2014) BDRip от ExKinoRay | EXTENDED | Чистый звук скачать через торрент бесплатно




    Геракл / Hercules (2014) BDRip от ExKinoRay | EXTENDED | Чистый звук скачать через торрент бесплатно

    Опубликовал: Админ | Дата: 27-02-2015, 11:10 | Просмотров: 154


    Детально о кино
    Русское название:Геракл
    Русское название в мировом прокате:Hercules
    Создали в:2014
    Категория жанра:боевик, приключения, фэнтези
    Главный режиссер:Бретт Рэтнер
    Актеры:Дуэйн Джонсон, Аксель Хенни, Иэн МакШейн, Джон Хёрт, Руфус Сьюэлл, Ингрид Больсё Бердаль, Рис Ричи, Джозеф Файнс, Тобиас Зантельман, Питер Муллан
    Сюжет фильма:
    Более тысячи лет назад измученная душа скиталась по Земле, полубог, получеловек — Геракл — могучий сын царя богов Зевса, совершив все 12 подвигов, потерял семью и теперь находит утешение только в кровавых битвах. За эти годы он собирает вокруг себя шестерых таких же потерянных воинов, единственным смыслом жизни для которых стали сражения и присутствие смертельной опасности. Эти мужчины и женщина никогда не задают вопрос, где, почему или с кем они идут сражаться; только, сколько им заплатят. Зная это, фракийский царь Котис нанимает этих воинов, чтобы они обучили его солдат и сделали из них самую сильную и великую армию всех времен.

    Снималось в:США/Flynn Picture Company, Metro-Goldwyn-Mayer (MGM), Paramount Pictures, Radical Studios
    Время просмотра:01:41:37
    Тип перевода:Дублированное Чистый звук
    Примечание:EXTENDED версия, длиннее театральной ~3 минуты. Расширенные сцены переведены русскими субтитрами
    Файл
    Кодек для видео:XviD
    Качество фильма:BDRip
    Информация о видео:720x304, 1855 Кбит/с, 23,976 кадра/сек
    Информация о звуке RUS:48 kHz, AC3, 2 ch, ~192 kbps avgДублированное Чистый звук
    Субтитры:Русские форсированные
    MI
    Общее
    Полное имя : D:ВидеоHercules.2014.Extended.BDRip 1.46 by Vovan366 (ExKinoRay)Hercules 2014 EXTENDED .BDRip by Vovan366 (ExKinoRay).avi
    Формат : AVI
    Формат/Информация : Audio Video Interleave
    Размер файла : 1,46 Гбайт
    Продолжительность : 1 ч. 41 м.
    Общий поток : 2056 Кбит/сек
    Программа кодирования : VirtualDubMod 1.5.10.3 | www.virtualdub-fr.org || (build 2550/release)
    Библиотека кодирования : VirtualDubMod build 2550/release
    Видео
    Идентификатор : 0
    Формат : MPEG-4 Visual
    Профиль формата : Advanced Simple@L5
    Параметр BVOP формата : 2
    Параметр QPel формата : Нет
    Параметр GMC формата : Без точки перехода
    Параметр матрицы формата : Выборочная
    Идентификатор кодека : XVID
    Идентификатор кодека/Подсказка : XviD
    Продолжительность : 1 ч. 41 м.
    Битрейт : 1855 Кбит/сек
    Ширина : 720 пикселей
    Высота : 304 пикселя
    Соотношение сторон : 2,35:1
    Частота кадров : 23,976 кадра/сек
    Цветовое пространство : YUV
    Субдискретизация насыщенности : 4:2:0
    Битовая глубина : 8 бит
    Тип развёртки : Прогрессивная
    Метод сжатия : С потерями
    Бит/(Пиксели*Кадры) : 0.353
    Размер потока : 1,32 Гбайт (90%)
    Библиотека кодирования : XviD 1.2.1 (UTC 2008-12-04)
    Аудио
    Идентификатор : 1
    Формат : AC-3
    Формат/Информация : Audio Coding 3
    Расширение режима : CM (complete main)
    Параметр Endianness формата : Big
    Идентификатор кодека : 2000
    Продолжительность : 1 ч. 41 м.
    Вид битрейта : Постоянный
    Битрейт : 192 Кбит/сек
    Каналы : 2 канала
    Расположение каналов : Front: L R
    Частота : 48,0 КГц
    Битовая глубина : 16 бит
    Метод сжатия : С потерями
    Размер потока : 140 Мбайт (9%)
    Выравнивание : Разделение по промежуткам
    Продолжительность промежутка : 42 мс. (1,00 видеокадр)
    Время предзагрузки промежутка : 500 мс.

    Скриншоты для ознакомления



    Релиз подготовил:
    Rip by:Vovan366
    Залил: Wazzzup RK
    Размер скачиваемого торрента: 1.46 GB (1566693431 Bytes)

    Геракл/Hercules (2014) BDRip от ExKinoRay | EXTENDED | Чистый звук скачать через торрент бесплатно
    загрузка...
    Рейтинг →
     (голосов: 1, оценка 4/5, голосовать можно 1 раз )

    Другие торренты по теме:

  • Подвиги Геракла: Схватка титанов / Samson Contre Hercule (1961) DVDRip от renta23 торрент скачать бесплатно
  • Геракл 3D / Hercules: The Legend Begins (2014) HD 720p | L1 | Трейлер торрент скачать бесплатно
  • Геракл: Начало легенды скачать через торрент бесплатно
  • Геракл: Начало легенды / The Legend of Hercules (2014) CAMRip торрент скачать бесплатно
  • Геракл: Начало легенды / The Legend of Hercules (2014) CAMRip от Goliaf торрент скачать бесплатно
  • Геракл: Начало легенды / The Legend of Hercules (2014) CAMRip *PROPER* торрент скачать бесплатно
  • Подвиги Геракла: Яд гидры / Hercules vs. the Hydra (1960) DVDRip-AVC от TORRENT - BAGIRA скачать через торрент бесплатно
  • Удивительные Странствия Геракла / Hercules The Legendary Journeys (1994-1999) DVDRip | CTC торрент скачать бесплатно


    • Комментарии (0):

      Информация

      Информация

        Посетители, находящиеся в группе Гости, не могут оставлять комментарии в данной новости.

        ↓ Меню



        ↓ Опрос

        А Вы добавили сайт в закладки?
        Да
        Не


        Top 10 за неделю (Фильмы)