.
Авторизация | Регистрация
Хочешь лучшие торренты? Добавь свой email!
Добавить
» » Сын отца народов (2013) DVDRip от New-Team | лицензия скачать через торрент бесплатно




    Сын отца народов (2013) DVDRip от New-Team | лицензия скачать через торрент бесплатно

    Опубликовал: Админ | Дата: 27-02-2015, 11:10 | Просмотров: 146

    Василий Сталин: жизнь в тени

    Снималось в: Россия/Фаворит фильм, Film.UA, при участии Беларусьфильм
    Категория жанра: драма
    Создали в: 2013
    Время просмотра: 00:52:00/серия
    Перевод текста:Не требуется
    Субтитры подготовлены: нет
    Оригинальная аудиодорожка: русский
    Главный режиссер: Сергей Гинзбург, Сергей Щербин
    Актеры: Гела Месхи, Василий Прокопьев, Анатолий Дзиваев, Сергей Газаров, Надежда Михалкова, Илья Ермолов, Алексей Вертков, Александр Никольский, Анатолий Гущин, Евгений Сангаджиев, Кристина Пакарина, Мария Жиганова, Артём Осипов, Светлана Колпакова, Юрий Маслак, Марьяна Спивак, Анна Кирина, Дмитрий Абазовик, Иван Суханов, Максим Сапрыкин, Мария Андреева
    Сюжет: Более 40 лет назад в Казани умер Василий Сталин, для одних — герой, для других — ничтожество. Каким он был на самом деле? Сюжет нового сериала расскажет о трагической судьбе Василия Сталина, любимого сына советского диктатора. Василий сделал блестящую военную карьеру летчика. Он был всеобщим любимцем и баловнем судьбы, покорителем женских сердец и отважным пилотом... Генерал-лейтенант в 26 лет, бабник и гуляка, Василий — невероятно обаятельный человек. Он отличный друг, прекрасный руководитель и талантливый спортсмен. Весь мир у него в кармане, но в день, когда Великий Сталин умирает, жизнь его сына меняется раз и навсегда…

    Качество фильма: DVDRip /2 x DVD9 R5- лицензионные диски от Lizard Cinema Trade
    Тип видео: AVI
    Информация о видео: 720x400 (16:9), 25.000 fps, XviD ~ 1800 kbps avg, 0.250 bit/pixel
    Информация о звуке: 48 kHz, Dolby AC3, 2 ch, 192 kbps,русский
    Раздача от:
    Интересно

    Основной актерский костяк в сериале Сын отца народов составили малоизвестные артисты. Исключением стала Надежда Михалкова, сыгравшая роль дочери Сталина Светланы Аллилуевой. Интересно, что во время съемок фильма актрисе пришлось специально носить обувь на низком каблуке, т. к. Светлана Аллилуева была невысокого роста. Роль Василия Сталина сыграл молодой российский актер Гела Месхи.
    Цитата
    — Мы решили, что известность актера не должна перевешивать значимость его роли, — прокомментировал такой выбор директор производства фильма Владимир Бухарев. — Это ведь не банальный сериал, не медицинская бегалка или бандитская стрелялка. Это достоверный исторический материал.

    Интересно, что актер Анатолий Дзиваев, исполнивший роль Иосифа Сталина в сериале Сын отца народов, уже неоднократно появлялся на телеэкранах в образе Вождя народов. На его счету роли Сталина в сериале Жуков, а также в фильмах Тухачевский. Заговор маршала, Земля обетованная от Иосифа Сталина, Поединок и Берия. Проигрыш. Съемки сериала Сын отца народов проходили на территории России и Белоруссии. Работа над фильмом началась в Московском Кремле и продолжилась на даче Сталина. Основная часть проекта снималась в Минске, где сохранилось немало где были воссозданы трагические военные события лета 1940 года. Среди декораций особый интерес представляли макеты истребителей И-16.

    MediaInfo

    Общее
    Полное имя : Syn.Otsa.Narodov.2013.O.DVDRip_by_keeper1.avi
    Формат : AVI
    Формат/Информация : Audio Video Interleave
    Размер файла : 734 Мбайт
    Продолжительность : 51 м.
    Общий поток : 2001 Кбит/сек
    Программа кодирования : VirtualDubMod 1.5.10.3 | www.virtualdub-fr.org || (build 2550/release)
    Библиотека кодирования : VirtualDubMod build 2550/release
    Видео
    Идентификатор : 0
    Формат : MPEG-4 Visual
    Профиль формата : Advanced Simple@L5
    Параметр BVOP формата : 1
    Параметр QPel формата : Нет
    Параметр GMC формата : Без точки перехода
    Параметр матрицы формата : Выборочная
    Идентификатор кодека : XVID
    Идентификатор кодека/Подсказка : XviD
    Продолжительность : 51 м.
    Битрейт : 1800 Кбит/сек
    Ширина : 720 пикселей
    Высота : 400 пикселей
    Соотношение сторон : 16:9
    Частота кадров : 25,000 кадров/сек
    Цветовое пространство : YUV
    Субдискретизация насыщенности : 4:2:0
    Битовая глубина : 8 бит
    Тип развёртки : Прогрессивная
    Метод сжатия : С потерями
    Бит/(Пиксели*Кадры) : 0.250
    Размер потока : 660 Мбайт (90%)
    Библиотека кодирования : XviD 1.2.1 (UTC 2008-12-04)
    Аудио
    Идентификатор : 1
    Формат : AC-3
    Формат/Информация : Audio Coding 3
    Расширение режима : CM (complete main)
    Параметр Endianness формата : Big
    Идентификатор кодека : 2000
    Продолжительность : 51 м.
    Вид битрейта : Постоянный
    Битрейт : 192 Кбит/сек
    Каналы : 2 канала
    Расположение каналов : Front: L R
    Частота : 48,0 КГц
    Битовая глубина : 16 бит
    Метод сжатия : С потерями
    Размер потока : 70,4 Мбайт (10%)
    Выравнивание : Разделение по промежуткам
    Продолжительность промежутка : 40 мс. (1,00 видеокадр)
    Время предзагрузки промежутка : 500 мс.

    Скриншоты для ознакомления:



    Размер скачиваемого торрента: 8.74 GB (9388853248 Bytes)

    Сын отца народов (2013) DVDRip от New-Team | лицензия скачать через торрент бесплатно
    загрузка...
    Рейтинг →
     (голосов: 1, оценка 5/5, голосовать можно 1 раз )

    Другие торренты по теме:

  • Сын отца народов (2013) SATRip
  • Сын отца народов (2013) HDTVRip от Files-x
  • Сын отца народов (2013) HDTVRip (720p) от Nikolspup скачать через торрент бесплатно
  • Сын отца народов (2013) HDTV 1080i скачать через торрент бесплатно
  • Сын отца народов (2013) WEB-DL 720p от MediaClub скачать через торрент бесплатно
  • Сын отца народов (2013) 2xDVD9 от New-Team | Лицензия
  • Сын отца народов (2013) DVDRip-AVC от New-Team | лицензия
  • Сын за отца (1 серия из 24) скачать через торрент бесплатно


    • Комментарии (0):

      Информация

      Информация

        Посетители, находящиеся в группе Гости, не могут оставлять комментарии в данной новости.

        ↓ Меню



        ↓ Опрос

        А Вы добавили сайт в закладки?
        Да
        Не


        Top 10 за месяц (Фильмы)