.
Авторизация | Регистрация
» » Сокровище нации: Дилогия / National Treasure: Duology (2004 / 2007) BDRip 720p торрент скачать бесплатно




    Сокровище нации: Дилогия / National Treasure: Duology (2004 / 2007) BDRip 720p торрент скачать бесплатно

    Опубликовал: Админ | Дата: 27-02-2015, 11:10 | Просмотров: 184

    Сокровище нации/National Treasure (2004)

    Детально о кино
    Русское название:Сокровище нации
    Русское название в мировом прокате:National Treasure
    Создали в:2004
    Категория жанра:боевик, триллер, детектив, приключения
    Главный режиссер:Джон Тёртелтауб
    Актеры:Николас Кейдж, Дайан Крюгер, Джастин Барта, Шон Бин, Джон Войт, Харви Кейтель, Кристофер Пламмер, Дэвид Дайан Фишер, Стюарт Финлэй-МакЛеннан, Олег Тактаров
    Сюжет фильма:Современные охотники за сокровищами во главе с Беном Франклином Гейтсом узнают старинную легенду о сокровище, спрятанном еще отцами-основателями американского государства Джорджем Вашингтоном, Бенджамином Франклином и Томасом Джефферсоном.
    Узнать тайну клада можно с помощью Декларации Независимости США, в которой зашифрована разгадка. Но помимо разгадывания изощренной головоломки, нашим героям предстоит сразиться с любителями легкой наживы, жаждущим погреть руки на достоянии республики…

    Снималось в:USA
    Киностудия:Walt Disney Pictures, Jerry Bruckheimer Films, Junction Entertainment
    Время просмотра:02:11:06
    Перевод текста:профессиональный (полное дублирование) , профессиональный (многоголосый закадровый), авторский (одноголосый закадровый)
    Субтитры:русские (Full, Forced, Commentary), украинские, английские
    Файл
    Кодек для видео:MPEG-4 AVC/H.264
    Качество фильма:BDRip 720p
    Информация о видео:1280 x 532 (2,40:1), 4 647 kbps, 23.976 fps, 0.285 b/px
    Информация о звуке:
    Информация о звуке # 1:АС3, 6 ch, 640 kbps, 48 000 Hz Дублированный (Blu-ray CEE)
    Информация о звуке # 2:DTS, 6 ch, 768 kbps, 48 000 Hz Одноголосый закадровый (А.Гаврилов)
    Информация о звуке # 3:DTS, 6 ch, 768 kbps, 48 000 Hz Одноголосый закадровый (В.Королёв)
    Информация о звуке # 4:AC3, 2 ch, 224 kbps, 48 000 Hz Многоголосый закадровый (1+1) (Украинский)
    Информация о звуке # 5:АС3, 6 ch, 640 kbps, 48 000 Hz Оригинальный
    MediaInfo
    Общее
    Уникальный идентификатор : 250637875960234047202851589632111838932 (0xBC8F195B67102B29BAB2C81E0AB686D4)
    Полное имя : E:VideoСокровище нации. Дилогия BDRip 720p2004 Сокровище нации BDRip 720p.mkv
    Формат : Matroska
    Версия формата : Version 4/Version 2
    Размер файла : 7,36 Гбайт
    Продолжительность : 2 ч. 11 м.
    Общий поток : 8039 Кбит/сек
    Название фильма : Сокровище нации/National Treasure (2004) BDRip 720p
    Дата кодирования : UTC 2014-11-04 11:51:39
    Программа кодирования : mkvmerge v7.2.0 (;On Every Street;) 32bit built on Sep 13 2014 15:42:11
    Библиотека кодирования : libebml v1.3.0 + libmatroska v1.4.1
    _STATISTICS_WRITING_APP : mkvmerge v7.2.0 (;On Every Street;) 32bit built on Sep 13 2014 15:42:11
    _STATISTICS_WRITING_DATE_UTC : 2014-11-04 11:51:39
    _STATISTICS_TAGS : BPS DURATION NUMBER_OF_FRAMES NUMBER_OF_BYTES
    DURATION : 02:00:07.200000000
    NUMBER_OF_FRAMES : 1457
    NUMBER_OF_BYTES : 100585
    Видео
    Идентификатор : 1
    Формат : AVC
    Формат/Информация : Advanced Video Codec
    Профиль формата : High@L4.1
    Параметр CABAC формата : Да
    Параметр ReFrames формата : 10 кадров
    Идентификатор кодека : V_MPEG4/ISO/AVC
    Продолжительность : 2 ч. 11 м.
    Битрейт : 4647 Кбит/сек
    Ширина : 1280 пикселей
    Высота : 532 пикселя
    Соотношение сторон : 2,40:1
    Режим частоты кадров : Постоянный
    Частота кадров : 23,976 кадра/сек
    Цветовое пространство : YUV
    Субдискретизация насыщенности : 4:2:0
    Битовая глубина : 8 бит
    Тип развёртки : Прогрессивная
    Бит/(Пиксели*Кадры) : 0.285
    Размер потока : 4,26 Гбайт (58%)
    Заголовок : 2004 Сокровище нации/National Treasure BDRip 720p
    Библиотека кодирования : x264 core 115 r1995 c1e60b9
    Настройки программы : cabac=1/ref=10/deblock=1:-3:-3/analyse=0x3:0x133/me=umh/subme=10/psy=1/psy_rd=1.00:0.00/mixed_ref=1/me_range=64/chroma_me=1/trellis=2/8x8dct=1/cqm=0/deadzone=21,11/fast_pskip=0/chroma_qp_offset=-2/threads=9/sliced_threads=0/nr=0/decimate=0/interlaced=0/bluray_compat=0/constrained_intra=0/bframes=9/b_pyramid=2/b_adapt=2/b_bias=0/direct=3/weightb=1/open_gop=0/weightp=2/keyint=250/keyint_min=23/scenecut=40/intra_refresh=0/rc_lookahead=40/rc=crf/mbtree=0/crf=17.4/qcomp=0.60/qpmin=0/qpmax=69/qpstep=4/vbv_maxrate=50000/vbv_bufsize=62500/crf_max=0.0/nal_hrd=none/ip_ratio=1.40/pb_ratio=1.30/aq=1:0.80
    Язык : English
    Default : Да
    Forced : Нет
    _STATISTICS_WRITING_APP : mkvmerge v7.2.0 (;On Every Street;) 32bit built on Sep 13 2014 15:42:11
    _STATISTICS_WRITING_DATE_UTC : 2014-11-04 11:51:39
    _STATISTICS_TAGS : BPS DURATION NUMBER_OF_FRAMES NUMBER_OF_BYTES
    DURATION : 02:11:04.482000000
    NUMBER_OF_FRAMES : 188559
    NUMBER_OF_BYTES : 4721808074
    Аудио #1
    Идентификатор : 2
    Формат : AC-3
    Формат/Информация : Audio Coding 3
    Расширение режима : CM (complete main)
    Параметр Endianness формата : Big
    Идентификатор кодека : A_AC3
    Продолжительность : 2 ч. 11 м.
    Вид битрейта : Постоянный
    Битрейт : 640 Кбит/сек
    Каналы : 6 каналов
    Расположение каналов : Front: L C R, Side: L R, LFE
    Частота : 48,0 КГц
    Битовая глубина : 16 бит
    Метод сжатия : С потерями
    Размер потока : 600 Мбайт (8%)
    Заголовок : Дублированный
    Язык : Russian
    Default : Да
    Forced : Нет
    Аудио #2
    Идентификатор : 3
    Формат : DTS
    Формат/Информация : Digital Theater Systems
    Режим : 16
    Параметр Endianness формата : Big
    Идентификатор кодека : A_DTS
    Продолжительность : 2 ч. 11 м.
    Вид битрейта : Постоянный
    Битрейт : 768 Кбит/сек
    Каналы : 6 каналов
    Расположение каналов : Front: L C R, Side: L R, LFE
    Частота : 48,0 КГц
    Битовая глубина : 16 бит
    Метод сжатия : С потерями
    Размер потока : 720 Мбайт (10%)
    Заголовок : Одноголосый закадровый
    Язык : Russian
    Default : Нет
    Forced : Нет
    Аудио #3
    Идентификатор : 4
    Формат : DTS
    Формат/Информация : Digital Theater Systems
    Режим : 16
    Параметр Endianness формата : Big
    Идентификатор кодека : A_DTS
    Продолжительность : 2 ч. 11 м.
    Вид битрейта : Постоянный
    Битрейт : 768 Кбит/сек
    Каналы : 6 каналов
    Расположение каналов : Front: L C R, Side: L R, LFE
    Частота : 48,0 КГц
    Битовая глубина : 16 бит
    Метод сжатия : С потерями
    Размер потока : 720 Мбайт (10%)
    Заголовок : Одноголосый закадровый
    Язык : Russian
    Default : Нет
    Forced : Нет
    Аудио #4
    Идентификатор : 5
    Формат : AC-3
    Формат/Информация : Audio Coding 3
    Расширение режима : CM (complete main)
    Параметр Endianness формата : Big
    Идентификатор кодека : A_AC3
    Продолжительность : 2 ч. 11 м.
    Вид битрейта : Постоянный
    Битрейт : 224 Кбит/сек
    Каналы : 2 канала
    Расположение каналов : Front: L R
    Частота : 48,0 КГц
    Битовая глубина : 16 бит
    Метод сжатия : С потерями
    Размер потока : 210 Мбайт (3%)
    Заголовок : Многоголосый закадровый
    Язык : Ukrainian
    Default : Нет
    Forced : Нет
    Аудио #5
    Идентификатор : 6
    Формат : AC-3
    Формат/Информация : Audio Coding 3
    Расширение режима : CM (complete main)
    Параметр Endianness формата : Big
    Идентификатор кодека : A_AC3
    Продолжительность : 2 ч. 11 м.
    Вид битрейта : Постоянный
    Битрейт : 640 Кбит/сек
    Каналы : 6 каналов
    Расположение каналов : Front: L C R, Side: L R, LFE
    Частота : 48,0 КГц
    Битовая глубина : 16 бит
    Метод сжатия : С потерями
    Размер потока : 600 Мбайт (8%)
    Заголовок : Оригинальный
    Язык : English
    Default : Нет
    Forced : Нет
    Аудио #6
    Идентификатор : 7
    Формат : AC-3
    Формат/Информация : Audio Coding 3
    Расширение режима : CM (complete main)
    Параметр Endianness формата : Big
    Идентификатор кодека : A_AC3
    Продолжительность : 2 ч. 11 м.
    Вид битрейта : Постоянный
    Битрейт : 192 Кбит/сек
    Каналы : 2 канала
    Расположение каналов : Front: L R
    Частота : 48,0 КГц
    Битовая глубина : 16 бит
    Метод сжатия : С потерями
    Размер потока : 180 Мбайт (2%)
    Заголовок : Commentary with Director John Turtletaub and Actor Justin Bartha
    Язык : English
    Default : Нет
    Forced : Нет
    Текст #1
    Идентификатор : 8
    Формат : UTF-8
    Идентификатор кодека : S_TEXT/UTF8
    Идентификатор кодека/Информация : UTF-8 Plain Text
    Заголовок : Русские (Full)
    Язык : Russian
    Default : Нет
    Forced : Нет
    Текст #2
    Идентификатор : 9
    Формат : UTF-8
    Идентификатор кодека : S_TEXT/UTF8
    Идентификатор кодека/Информация : UTF-8 Plain Text
    Заголовок : Русские (Forced)
    Язык : Russian
    Default : Да
    Forced : Да
    Текст #3
    Идентификатор : 10
    Формат : UTF-8
    Идентификатор кодека : S_TEXT/UTF8
    Идентификатор кодека/Информация : UTF-8 Plain Text
    Заголовок : Русские (Commentary)
    Язык : Russian
    Default : Нет
    Forced : Нет
    Текст #4
    Идентификатор : 11
    Формат : UTF-8
    Идентификатор кодека : S_TEXT/UTF8
    Идентификатор кодека/Информация : UTF-8 Plain Text
    Заголовок : Украинские
    Язык : Ukrainian
    Default : Нет
    Forced : Нет
    Текст #5
    Идентификатор : 12
    Формат : ASS
    Идентификатор кодека : S_TEXT/ASS
    Идентификатор кодека/Информация : Advanced Sub Station Alpha
    Метод сжатия : Без потерь
    Заголовок : English
    Язык : English
    Default : Нет
    Forced : Нет
    Меню
    00:00:00.000 : en:Chapter 01
    00:06:36.229 : en:Chapter 02
    00:22:20.338 : en:Chapter 03
    00:28:49.268 : en:Chapter 04
    00:31:15.290 : en:Chapter 05
    00:35:44.516 : en:Chapter 06
    00:45:52.666 : en:Chapter 07
    00:54:27.973 : en:Chapter 08
    01:01:07.705 : en:Chapter 09
    01:07:02.685 : en:Chapter 10
    01:16:54.609 : en:Chapter 11
    01:24:06.457 : en:Chapter 12
    01:28:21.671 : en:Chapter 13
    01:34:20.821 : en:Chapter 14
    01:38:31.988 : en:Chapter 15
    01:49:42.576 : en:Chapter 16
    01:53:26.381 : en:Chapter 17
    01:57:22.452 : en:Chapter 18
    02:01:43.379 : en:Chapter 19
    02:11:04.231 : en:Chapter 20

    Скриншоты для ознакомления

    Сокровище нации: Книга Тайн/National Treasure: Book of Secrets (2007)


    Детально о кино
    Русское название:Сокровище нации: Книга Тайн
    Русское название в мировом прокате:National Treasure: Book of Secrets
    Создали в:2007
    Категория жанра:боевик, триллер, детектив, приключения
    Главный режиссер:Джон Тёртелтауб
    Актеры:Николас Кейдж, Дайан Крюгер, Джастин Барта, Джон Войт, Хелен Миррен, Эд Харрис, Харви Кейтель, Брюс Гринвуд, Тай Бурелл, Майкл Мейзе
    Сюжет фильма:Охотник за сокровищами Бен Гейтс, вооружившись поддержкой любимой женщины, верного друга Райли, а также своих родителей, отправляется на поиски затерянного золотого города. Только пройдя сквозь череду невероятных и увлекательных приключений, Бену удастся очистить имя своего предка от обвинений в убийстве Авраама Линкольна. Но не все так просто — параллельные поиски города ведет и некий Митч Уилкинсон, готовый на все ради достижения цели...

    Снималось в:USA
    Киностудия:Walt Disney Pictures, Jerry Bruckheimer Films, Junction Entertainment
    Время просмотра:02:04:32
    Перевод текста:профессиональный (полное дублирование) , авторский (одноголосый закадровый)
    Субтитры:русские (Full, Forced, Commentary), украинские, английские
    Файл
    Кодек для видео:MPEG-4 AVC/H.264
    Качество фильма:BDRip 720p
    Информация о видео:1280 x 534 (2,40:1), 5 878 kbps, 23.976 fps, 0.359 b/px
    Информация о звуке:
    Информация о звуке # 1:AC3, 6 ch, 640 kbps, 48 000 Hz Дублированный (Blu-ray CEE)
    Информация о звуке # 2:DTS, 6 ch, 768 kbps, 48 000 Hz Одноголосый закадровый (А.Гаврилов)
    Информация о звуке # 3:DTS, 6 ch, 768 kbps, 48 000 Hz Одноголосый закадровый (В.Королёв)
    Информация о звуке # 4:AC3, 6 ch, 384 kbps, 48 000 Hz Дублированный (Украинский
    Информация о звуке # 5:АС3, 6 ch, 640 kbps, 48 000 Hz Оригинальный
    MediaInfo
    Общее
    Уникальный идентификатор : 224536816490790718328953835453299268969 (0xA8EC37C4FF770844B1C62AEE4AF39D69)
    Полное имя : E:VideoСокровище нации. Дилогия BDRip 720p2007 Сокровище нации. Книга Тайн BDRip 720p.mkv
    Формат : Matroska
    Версия формата : Version 4/Version 2
    Размер файла : 8,23 Гбайт
    Продолжительность : 2 ч. 4 м.
    Общий поток : 9458 Кбит/сек
    Название фильма : Сокровище нации: Книга Тайн/National Treasure: Book of Secrets (2007) BDRip 720p
    Дата кодирования : UTC 2014-11-04 11:41:58
    Программа кодирования : mkvmerge v7.2.0 (;On Every Street;) 32bit built on Sep 13 2014 15:42:11
    Библиотека кодирования : libebml v1.3.0 + libmatroska v1.4.1
    DURATION : 01:55:55.620000000
    NUMBER_OF_FRAMES : 1500
    NUMBER_OF_BYTES : 103561
    _STATISTICS_WRITING_APP : mkvmerge v7.2.0 (;On Every Street;) 32bit built on Sep 13 2014 15:42:11
    _STATISTICS_WRITING_DATE_UTC : 2014-11-04 11:41:58
    _STATISTICS_TAGS : BPS DURATION NUMBER_OF_FRAMES NUMBER_OF_BYTES
    Видео
    Идентификатор : 1
    Формат : AVC
    Формат/Информация : Advanced Video Codec
    Профиль формата : High@L4.1
    Параметр CABAC формата : Да
    Параметр ReFrames формата : 10 кадров
    Идентификатор кодека : V_MPEG4/ISO/AVC
    Продолжительность : 2 ч. 4 м.
    Битрейт : 5878 Кбит/сек
    Ширина : 1280 пикселей
    Высота : 534 пикселя
    Соотношение сторон : 2,40:1
    Режим частоты кадров : Постоянный
    Частота кадров : 23,976 кадра/сек
    Цветовое пространство : YUV
    Субдискретизация насыщенности : 4:2:0
    Битовая глубина : 8 бит
    Тип развёртки : Прогрессивная
    Бит/(Пиксели*Кадры) : 0.359
    Размер потока : 5,11 Гбайт (62%)
    Заголовок : 2007 Сокровище нации: Книга Тайн/National Treasure: Book of Secrets BDRip 720p
    Библиотека кодирования : x264 core 115 r1995 c1e60b9
    Настройки программы : cabac=1/ref=10/deblock=1:-3:-3/analyse=0x3:0x133/me=umh/subme=10/psy=1/psy_rd=1.00:0.00/mixed_ref=1/me_range=64/chroma_me=1/trellis=2/8x8dct=1/cqm=0/deadzone=21,11/fast_pskip=0/chroma_qp_offset=-2/threads=9/sliced_threads=0/nr=0/decimate=0/interlaced=0/bluray_compat=0/constrained_intra=0/bframes=9/b_pyramid=2/b_adapt=2/b_bias=0/direct=3/weightb=1/open_gop=0/weightp=2/keyint=250/keyint_min=23/scenecut=40/intra_refresh=0/rc_lookahead=40/rc=crf/mbtree=0/crf=17.0/qcomp=0.60/qpmin=0/qpmax=69/qpstep=4/vbv_maxrate=50000/vbv_bufsize=62500/crf_max=0.0/nal_hrd=none/ip_ratio=1.40/pb_ratio=1.30/aq=1:0.80
    Язык : English
    Default : Да
    Forced : Нет
    DURATION : 02:04:32.465000000
    NUMBER_OF_FRAMES : 179160
    NUMBER_OF_BYTES : 5661678893
    _STATISTICS_WRITING_APP : mkvmerge v7.2.0 (;On Every Street;) 32bit built on Sep 13 2014 15:42:11
    _STATISTICS_WRITING_DATE_UTC : 2014-11-04 11:41:58
    _STATISTICS_TAGS : BPS DURATION NUMBER_OF_FRAMES NUMBER_OF_BYTES
    Аудио #1
    Идентификатор : 2
    Формат : AC-3
    Формат/Информация : Audio Coding 3
    Расширение режима : CM (complete main)
    Параметр Endianness формата : Big
    Идентификатор кодека : A_AC3
    Продолжительность : 2 ч. 4 м.
    Вид битрейта : Постоянный
    Битрейт : 640 Кбит/сек
    Каналы : 6 каналов
    Расположение каналов : Front: L C R, Side: L R, LFE
    Частота : 48,0 КГц
    Битовая глубина : 16 бит
    Метод сжатия : С потерями
    Размер потока : 570 Мбайт (7%)
    Заголовок : Дублированный
    Язык : Russian
    Default : Да
    Forced : Нет
    Аудио #2
    Идентификатор : 3
    Формат : DTS
    Формат/Информация : Digital Theater Systems
    Режим : 16
    Параметр Endianness формата : Big
    Идентификатор кодека : A_DTS
    Продолжительность : 2 ч. 4 м.
    Вид битрейта : Постоянный
    Битрейт : 768 Кбит/сек
    Каналы : 6 каналов
    Расположение каналов : Front: L C R, Side: L R, LFE
    Частота : 48,0 КГц
    Битовая глубина : 16 бит
    Метод сжатия : С потерями
    Размер потока : 684 Мбайт (8%)
    Заголовок : Одноголосый закадровый
    Язык : Russian
    Default : Нет
    Forced : Нет
    Аудио #3
    Идентификатор : 4
    Формат : DTS
    Формат/Информация : Digital Theater Systems
    Режим : 16
    Параметр Endianness формата : Big
    Идентификатор кодека : A_DTS
    Продолжительность : 2 ч. 4 м.
    Вид битрейта : Постоянный
    Битрейт : 768 Кбит/сек
    Каналы : 6 каналов
    Расположение каналов : Front: L C R, Side: L R, LFE
    Частота : 48,0 КГц
    Битовая глубина : 16 бит
    Метод сжатия : С потерями
    Размер потока : 684 Мбайт (8%)
    Заголовок : Одноголосый закадровый
    Язык : Russian
    Default : Нет
    Forced : Нет
    Аудио #4
    Идентификатор : 5
    Формат : AC-3
    Формат/Информация : Audio Coding 3
    Расширение режима : CM (complete main)
    Параметр Endianness формата : Big
    Идентификатор кодека : A_AC3
    Продолжительность : 2 ч. 4 м.
    Вид битрейта : Постоянный
    Битрейт : 384 Кбит/сек
    Каналы : 6 каналов
    Расположение каналов : Front: L C R, Side: L R, LFE
    Частота : 48,0 КГц
    Битовая глубина : 16 бит
    Метод сжатия : С потерями
    Размер потока : 342 Мбайт (4%)
    Заголовок : Дублированный
    Язык : Ukrainian
    Default : Нет
    Forced : Нет
    Аудио #5
    Идентификатор : 6
    Формат : AC-3
    Формат/Информация : Audio Coding 3
    Расширение режима : CM (complete main)
    Параметр Endianness формата : Big
    Идентификатор кодека : A_AC3
    Продолжительность : 2 ч. 4 м.
    Вид битрейта : Постоянный
    Битрейт : 640 Кбит/сек
    Каналы : 6 каналов
    Расположение каналов : Front: L C R, Side: L R, LFE
    Частота : 48,0 КГц
    Битовая глубина : 16 бит
    Метод сжатия : С потерями
    Размер потока : 570 Мбайт (7%)
    Заголовок : Оригинальный
    Язык : English
    Default : Нет
    Forced : Нет
    Аудио #6
    Идентификатор : 7
    Формат : AC-3
    Формат/Информация : Audio Coding 3
    Профиль формата : Dolby Digital
    Расширение режима : CM (complete main)
    Параметр Endianness формата : Big
    Идентификатор кодека : A_AC3
    Продолжительность : 2 ч. 4 м.
    Вид битрейта : Постоянный
    Битрейт : 192 Кбит/сек
    Каналы : 2 канала
    Расположение каналов : Front: L R
    Частота : 48,0 КГц
    Битовая глубина : 16 бит
    Метод сжатия : С потерями
    Размер потока : 171 Мбайт (2%)
    Заголовок : Commentary with Director John Turtletaub and Actor Jon Voight
    Язык : English
    Default : Нет
    Forced : Нет
    Текст #1
    Идентификатор : 8
    Формат : UTF-8
    Идентификатор кодека : S_TEXT/UTF8
    Идентификатор кодека/Информация : UTF-8 Plain Text
    Заголовок : Русские (Full)
    Язык : Russian
    Default : Нет
    Forced : Нет
    Текст #2
    Идентификатор : 9
    Формат : UTF-8
    Идентификатор кодека : S_TEXT/UTF8
    Идентификатор кодека/Информация : UTF-8 Plain Text
    Заголовок : Русские (Forced)
    Язык : Russian
    Default : Да
    Forced : Да
    Текст #3
    Идентификатор : 10
    Формат : UTF-8
    Идентификатор кодека : S_TEXT/UTF8
    Идентификатор кодека/Информация : UTF-8 Plain Text
    Заголовок : Русские (Commentary)
    Язык : Russian
    Default : Нет
    Forced : Нет
    Текст #4
    Идентификатор : 11
    Формат : UTF-8
    Идентификатор кодека : S_TEXT/UTF8
    Идентификатор кодека/Информация : UTF-8 Plain Text
    Заголовок : Украинские
    Язык : Ukrainian
    Default : Нет
    Forced : Нет
    Текст #5
    Идентификатор : 12
    Формат : ASS
    Идентификатор кодека : S_TEXT/ASS
    Идентификатор кодека/Информация : Advanced Sub Station Alpha
    Метод сжатия : Без потерь
    Заголовок : English
    Язык : English
    Default : Нет
    Forced : Нет
    Меню
    00:00:00.000 : en:Chapter 01
    00:04:59.340 : en:Chapter 02
    00:08:27.214 : en:Chapter 03
    00:16:55.723 : en:Chapter 04
    00:22:01.945 : en:Chapter 05
    00:26:03.395 : en:Chapter 06
    00:36:47.038 : en:Chapter 07
    00:43:02.913 : en:Chapter 08
    00:50:14.010 : en:Chapter 09
    00:55:27.907 : en:Chapter 10
    01:00:01.389 : en:Chapter 11
    01:11:22.987 : en:Chapter 12
    01:20:14.017 : en:Chapter 13
    01:24:42.744 : en:Chapter 14
    01:30:41.269 : en:Chapter 15
    01:40:07.334 : en:Chapter 16
    01:47:17.889 : en:Chapter 17
    01:57:20.533 : en:Chapter 18
    02:04:32.214 : en:Chapter 19

    Скриншоты для ознакомления

    Размер скачиваемого торрента: 15.59 GB (16738777641 Bytes)

    Сокровище нации: Дилогия/National Treasure: Duology (2004/2007) BDRip 720p торрент скачать бесплатно
    загрузка...
    Рейтинг →
     (голосов: 1, оценка 4/5, голосовать можно 1 раз )

    Другие торренты по теме:

  • Сокровище нации: Дилогия / National Treasure: Dilogy (2004-2007) BDRip 1080p торрент скачать бесплатно
  • Сокровище нации: Книга Тайн / National Treasure: Book of Secrets (2007) BDRip-AVC торрент скачать бесплатно
  • Сокровище нации / National Treasure (2004) BDRip-AVC торрент скачать бесплатно
  • OST - Сокровище нации: Книга тайн / National Treasure 2: Book Of Secrets (2007) MP3 торрент скачать бесплатно
  • Сокровище нации: Книга Тайн / National Treasure: Book of Secrets (2007) BDRip-AVC от 0ptimus | D торрент скачать бесплатно
  • Сокровище нации / National Treasure (2004) BDRip-AVC от 0ptimus | D торрент скачать бесплатно
  • Сокровище нации: Дилогия / National Treasure: Duology (2004, 2007) BDRip-AVС от 0ptimus | D, P, P2, A скачать через торрент бесплатно
  • Сокровище нации / National Treasure (2004) BDRip от ivandubskoj | D, P2 торрент скачать бесплатно


    • Комментарии (0):

      Информация

      Информация

        Посетители, находящиеся в группе Гости, не могут оставлять комментарии в данной новости.

        ↓ Меню



        ↓ Опрос

        А Вы добавили сайт в закладки?
        Да
        Не


        Top 10 за неделю (Фильмы)