.
Авторизация | Регистрация
Хочешь лучшие торренты? Добавь свой email!
Добавить
» » Тайны старого отеля / The Innkeepers (2011) DVD9 от New-Team | D | лицензия торрент скачать бесплатно




    Тайны старого отеля / The Innkeepers (2011) DVD9 от New-Team | D | лицензия торрент скачать бесплатно

    Опубликовал: Админ | Дата: 27-02-2015, 11:10 | Просмотров: 139


    Снималось в: США
    Категория жанра: ужасы, триллер
    Создали в: 2011
    релиз на DVD: 8 мая 2012, Парадиз Медиа
    Время просмотра: 01:37:09
    Перевод текста:Профессиональный (дублированный)лицензия
    Субтитры подготовлены: Русский
    Оригинальная аудиодорожка: английский
    Главный режиссер: Ти Уэст/Ti West
    Актеры: Сара Пэкстон, Пэт Хили, Элисон Бартлетт, Jake Schleuter, Келли МакГиллис, Лена Данхэм, Джордж Риддл, Бренда Куни, Джон Спередакос, Шон Рейд
    Сюжет: Yankee Pedlar Inn является один из старейших Английских отелей и находится на грани закрытия. Клэр и Люк — последние из работников этого отеля, за которым сложилась не самая хорошая репутация: якобы в стенах этого отеля регулярно появляются призраки. И вот, отважные охотники за привидениями решают, во что бы то ни стало, разгадать тайны отеля и вернуть ему былую славу…



    Меню: анимированное
    Дополнительные материалы: Скоро на DVD
    Тип релиза:DVD9 R5
    Контейнер: DVD-Video
    Информация о видео: PAL 16:9 (720x576) VBR ~ 7124 kbps, Auto Letterboxed
    Информация о звуке: Russian (Dolby AC3, 6 ch, 384 kbps)
    Информация о звуке: English (Dolby AC3, 6 ch, 384 kbps)
    Информация о звуке: Russian (Dolby AC3, 2 ch, 192 kbps)
    Раздача от:
    DVDInfo

    Title: Tainu.Starogo.Otelia.2011.DVD-9
    Size: 6.40 Gb ( 6 715 204,00 KBytes ) - DVD-9
    Enabled regions: 1, 2, 3, 4, 5, 6, 7, 8
    VTS_01 :
    Play Length: 00:00:01+01:37:07+00:00:01
    Video: PAL 16:9 (720x576) VBR, Auto Letterboxed
    Audio:
    Russian (Dolby AC3, 6 ch)
    Russian (Dolby AC3, 2 ch)
    English (Dolby AC3, 6 ch)
    Subtitles:
    Russian
    VTS_02 :
    Play Length: 00:00:01+00:00:11+00:00:01
    Video: PAL 16:9 (720x576) VBR, Auto Letterboxed
    Audio:
    Russian (Dolby AC3, 2 ch)
    VTS_03 :
    Play Length: 00:00:01+00:00:20+00:00:01
    Video: PAL 16:9 (720x576) VBR, Auto Letterboxed
    Audio:
    Russian (Dolby AC3, 2 ch)
    VTS_04 :
    Play Length: 00:00:01+00:12:21+00:00:01
    Video: PAL 16:9 (720x576) VBR, Auto Letterboxed
    Audio:
    Russian (Dolby AC3, 2 ch)
    VTS_05 :
    Play Length: 00:00:01+00:08:50+00:00:01
    Video: PAL 4:3 (720x576) VBR
    Audio:
    Russian (Dolby AC3, 2 ch)
    * Menus Information *
    VIDEO_TS Menu
    Video:
    NTSC 4:3 (720x480) VBR
    Auto PanScan, Auto Letterboxed
    Russian Language Unit :
    Title Menu
    VTS_01 Menu
    Video:
    PAL 16:9 (720x576) VBR
    Auto Letterboxed
    Audio:
    Not specified (Dolby AC3, 2 ch)
    Russian Language Unit :
    Root Menu
    VTS_02 Menu
    Video:
    NTSC 4:3 (720x480) VBR
    Auto PanScan, Auto Letterboxed
    Language Unit :
    Angle menu
    Language Unit :
    Angle menu
    Language Unit :
    VTS_03 Menu
    Video:
    NTSC 4:3 (720x480) VBR
    Auto PanScan, Auto Letterboxed
    Language Unit :
    Angle menu
    Language Unit :
    Angle menu
    Chapter (PTT) Menu
    Language Unit :
    Angle menu
    Chapter (PTT) Menu
    VTS_04 Menu
    Video:
    NTSC 4:3 (720x480) VBR
    Auto PanScan, Auto Letterboxed
    Russian Language Unit :
    Root Menu
    VTS_05 Menu
    Video:
    NTSC 4:3 (720x480) VBR
    Auto PanScan, Auto Letterboxed
    Russian Language Unit :
    Root Menu

    MediaInfo

    Общее
    Полное имя : D:Tainu.Starogo.Otelia.2011.DVD-9VIDEO_TSVTS_01_1.VOB
    Формат : MPEG-PS
    Размер файла : 1024 Мбайт
    Продолжительность : 17 м.
    Общий поток : 8248 Кбит/сек
    Видео
    Идентификатор : 224 (0xE0)
    Формат : MPEG Video
    Версия формата : Version 2
    Профиль формата : Main@Main
    Параметр BVOP формата : Да
    Параметр матрицы формата : Выборочная
    Продолжительность : 17 м.
    Битрейт : 7124 Кбит/сек
    Максимальный битрейт : 6000 Кбит/сек
    Ширина : 720 пикселей
    Высота : 576 пикселей
    Соотношение сторон : 16:9
    Частота кадров : 25,000 кадров/сек
    Стандарт вещания : PAL
    Цветовое пространство : YUV
    Субдискретизация насыщенности : 4:2:0
    Битовая глубина : 8 бит
    Тип развёртки : Чересстрочная
    Порядок развёртки : Нижнее поле первое
    Метод сжатия : С потерями
    Бит/(Пиксели*Кадры) : 0.687
    Размер потока : 884 Мбайт (86%)
    Аудио #1
    Идентификатор : 189 (0xBD)-128 (0x80)
    Формат : AC-3
    Формат/Информация : Audio Coding 3
    Расширение режима : CM (complete main)
    Параметр Endianness формата : Big
    Режим смешивания : DVD-Video
    Продолжительность : 17 м.
    Вид битрейта : Постоянный
    Битрейт : 384 Кбит/сек
    Каналы : 6 каналов
    Расположение каналов : Front: L C R, Side: L R, LFE
    Частота : 48,0 КГц
    Битовая глубина : 16 бит
    Метод сжатия : С потерями
    Размер потока : 47,7 Мбайт (5%)
    Аудио #2
    Идентификатор : 189 (0xBD)-129 (0x81)
    Формат : AC-3
    Формат/Информация : Audio Coding 3
    Расширение режима : CM (complete main)
    Параметр Endianness формата : Big
    Режим смешивания : DVD-Video
    Продолжительность : 17 м.
    Вид битрейта : Постоянный
    Битрейт : 192 Кбит/сек
    Каналы : 2 канала
    Расположение каналов : Front: L R
    Частота : 48,0 КГц
    Битовая глубина : 16 бит
    Метод сжатия : С потерями
    Размер потока : 23,8 Мбайт (2%)
    Аудио #3
    Идентификатор : 189 (0xBD)-130 (0x82)
    Формат : AC-3
    Формат/Информация : Audio Coding 3
    Расширение режима : CM (complete main)
    Параметр Endianness формата : Big
    Режим смешивания : DVD-Video
    Продолжительность : 17 м.
    Вид битрейта : Постоянный
    Битрейт : 384 Кбит/сек
    Каналы : 6 каналов
    Расположение каналов : Front: L C R, Side: L R, LFE
    Частота : 48,0 КГц
    Битовая глубина : 16 бит
    Метод сжатия : С потерями
    Размер потока : 47,7 Мбайт (5%)
    Текст
    Идентификатор : 189 (0xBD)-32 (0x20)
    Формат : RLE
    Формат/Информация : Run-length encoding
    Режим смешивания : DVD-Video
    Продолжительность : 17 м.
    Меню

    Скриншоты для ознакомления меню



    Скриншоты для ознакомления



    Обложка блин



    Залил: AVPStudio
    Размер скачиваемого торрента: 6.40 GB (6876368896 Bytes)

    Тайны старого отеля/The Innkeepers (2011) DVD9 от New-Team | D | лицензия торрент скачать бесплатно
    загрузка...
    Рейтинг →
     (голосов: 1, оценка 5/5, голосовать можно 1 раз )

    Другие торренты по теме:

  • Тайны старого отеля / The Innkeepers (2011) DVD5 от Youtracker | D | Cжатый
  • Тайны Старого Лондона / Орсон и Оливия / Orson Olivia (1995) SATRip-AVC | D
  • Тайны старого отеля / The Innkeepers (2011) BDRip от Rulya74
  • Тайны старого отеля / The Innkeepers (2011) BDRip-AVC от HELLYWOOD | Лицензия скачать через торрент бесплатно


    • Комментарии (0):

      Информация

      Информация

        Посетители, находящиеся в группе Гости, не могут оставлять комментарии в данной новости.

        ↓ Меню



        ↓ Опрос

        А Вы добавили сайт в закладки?
        Да
        Не


        Top 10 за месяц (Фильмы)