.
Авторизация | Регистрация
» » Китаянка / La chinoise (1967) BDRip от Rulya74 торрент скачать бесплатно




    Китаянка / La chinoise (1967) BDRip от Rulya74 торрент скачать бесплатно

    Опубликовал: Админ | Дата: 27-02-2015, 11:10 | Просмотров: 199

    Китаянка/La chinoise (1967) BDRip

    Детально о кино
    Русское название:Китаянка
    Русское название в мировом прокате:La chinoise
    Создали в:1967
    Категория жанра:драма, комедия
    Главный режиссер:Жан-Люк Годар
    Актеры:Анн Вяземски, Жан-Пьер Лео, Жюльет Берто, Мишель Семеньяко, Лекс Де Брёйн, Омар Диоп, Френсис Жансон, Бландин Жансон, Элен Джованьоли...
    Сюжет фильма:Небольшая группа французских студентов изучают жизнь Мао, пытаясь найти свое место в мире и понять как меняется мир под воздействием маоизма.

    Снималось в:Франция
    Время просмотра:01:36:17
    Перевод текста:Одноголосый закадровый (неизвестный), Оригинал (Французский)
    Файл
    Кодек для видео:XviD
    Качество фильма:BDRip
    Информация о видео:672x512 (4:3), 24 fps, 1758 kbps, 0.213 bit/pixe
    Информация о звуке #1:48 kHz, AC3 Dolby Digital, 2/0 (L,R) ch, ~192 kbps | Русский
    Информация о звуке #2:48 kHz, AC3 Dolby Digital, 2/0 (L,R) ch, ~192 kbps | Оригинал
    Субтитры:русские, французкие, английские (внешние)

    MediaInfo
    Общее
    Полное имя : D:TorrentLa chinoise.1967.BDRipLa chinoise.1967.BDRip.avi
    Формат : AVI
    Формат/Информация : Audio Video Interleave
    Размер файла : 1,45 Гбайт
    Продолжительность : 1 ч. 36 м.
    Общий поток : 2156 Кбит/сек
    Название фильма : La chinoise.1967.BDRip
    Программа кодирования : VirtualDubModRus 1.5.10.2 (build 2542/release)
    Правообладатель : rip by Rulya74
    Видео
    Идентификатор : 0
    Формат : MPEG-4 Visual
    Профиль формата : Advanced Simple@L5
    Параметр BVOP формата : 1
    Параметр QPel формата : Нет
    Параметр GMC формата : Без точки перехода
    Параметр матрицы формата : Выборочная
    Идентификатор кодека : XVID
    Идентификатор кодека/Подсказка : XviD
    Продолжительность : 1 ч. 36 м.
    Битрейт : 1758 Кбит/сек
    Ширина : 672 пикселя
    Высота : 512 пикселей
    Соотношение сторон : 4:3
    Частота кадров : 24,000 кадра/сек
    Цветовое пространство : YUV
    Субдискретизация насыщенности : 4:2:0
    Битовая глубина : 8 бит
    Тип развёртки : Прогрессивная
    Метод сжатия : С потерями
    Бит/(Пиксели*Кадры) : 0.213
    Размер потока : 1,18 Гбайт (82%)
    Библиотека кодирования : XviD 66
    Аудио #1
    Идентификатор : 1
    Формат : AC-3
    Формат/Информация : Audio Coding 3
    Расширение режима : CM (complete main)
    Параметр Endianness формата : Big
    Идентификатор кодека : 2000
    Продолжительность : 1 ч. 36 м.
    Вид битрейта : Постоянный
    Битрейт : 192 Кбит/сек
    Каналы : 2 канала
    Расположение каналов : Front: L R
    Частота : 48,0 КГц
    Битовая глубина : 16 бит
    Метод сжатия : С потерями
    Размер потока : 132 Мбайт (9%)
    Выравнивание : Разделение по промежуткам
    Продолжительность промежутка : 42 мс. (1,00 видеокадр)
    Время предзагрузки промежутка : 500 мс.
    Заголовок : Одноголосый закадровый
    Аудио #2
    Идентификатор : 2
    Формат : AC-3
    Формат/Информация : Audio Coding 3
    Расширение режима : CM (complete main)
    Параметр Endianness формата : Big
    Идентификатор кодека : 2000
    Продолжительность : 1 ч. 36 м.
    Вид битрейта : Постоянный
    Битрейт : 192 Кбит/сек
    Каналы : 2 канала
    Расположение каналов : Front: L R
    Частота : 48,0 КГц
    Битовая глубина : 16 бит
    Метод сжатия : С потерями
    Размер потока : 132 Мбайт (9%)
    Выравнивание : Разделение по промежуткам
    Продолжительность промежутка : 42 мс. (1,00 видеокадр)
    Время предзагрузки промежутка : 500 мс.
    Заголовок : Оригинал (Французский)
    Скриншоты для ознакомления


    Залил: Rulya74
    Размер скачиваемого торрента: 1.45 GB (1556992897 Bytes)

    Китаянка/La chinoise (1967) BDRip от Rulya74 торрент скачать бесплатно
    загрузка...
    Рейтинг →
     (голосов: 1, оценка 5/5, голосовать можно 1 раз )

    Другие торренты по теме:

  • Преступление на почве страсти / Голубая китаянка / Crimes of passion (1984) DVDRip от VA Lev торрент скачать бесплатно


    • Комментарии (0):

      Информация

      Информация

        Посетители, находящиеся в группе Гости, не могут оставлять комментарии в данной новости.

        ↓ Меню



        ↓ Опрос

        А Вы добавили сайт в закладки?
        Да
        Не


        Top 10 за неделю (Фильмы)