.
Авторизация | Регистрация
» » Последний из Магикян (2013) DVDRip от New-Team | лицензия торрент скачать бесплатно




    Последний из Магикян (2013) DVDRip от New-Team | лицензия торрент скачать бесплатно

    Опубликовал: Админ | Дата: 27-02-2015, 11:10 | Просмотров: 166

    Комедия с акцентом

    Снималось в: Россия/Yellow, Black White
    Категория жанра: комедия, семейный
    Создали в: 2013
    Время просмотра: 00:24:00/серия
    Перевод текста:Не требуется
    Субтитры подготовлены: нет
    Оригинальная аудиодорожка: русский
    Главный режиссер: Резо Гигинеишвили, Акаки Сахелашвили
    Актеры: Грант Тохатян, Анна Ардова, Андрей Бурковский, Элен Касьяник, Алина Гринберг, Луиза-Габриэла Бровина, Баймурат Аллабериев, Наталия Вдовина, Александр Феклистов, Амина Хасанова...
    Сюжет: Карену Магикяну почти 50 лет. Он — глава семьи и отец трех дочерей. В этом возрасте люди уже не меняются. Он давно сформулировал законы и правила, по которым живет, и нарушать ничего не собирается. Ему-то самому кажется, что за последние 10-15 лет он ничуть не изменился, ни капельки не постарел. Более того — он считает себя вполне современным человеком, хотя у него мобильный телефон с черно-белым экраном и нет электронной почты. Вот это, кстати, его раздражает особенно сильно — с чего все вокруг сходят с ума по этим гаджетам, айпэдам, айфонам. Почему младшая дочь, вернувшись из школы, сразу идет в интернет, а не поцеловать папу? Общаться — это же значит сидеть за столом, пить вино и разговаривать, а не пялиться в экран компьютера и портить себе глаза. Он не понимает современных отношений. Как у дочери может остаться ночевать парень, когда они не женаты? И его не волнуют уверения жены, что сейчас все так делают. Пусть так делают все, но не в его семье! Он кавказец, у него есть принципы! Карен — Последний из Магикян. И не только потому, что у него три дочери, а наследника в таком возрасте явно не предвидится. Он — представитель исчезающего вида людей, которые никогда не разговаривали по скайпу, для которых письмо — это исписанная буквами бумага в конверте, а самое главное — которые не прогибаются под меняющийся мир, потому что сейчас так принято и ты живешь в 21 веке. Зрители помладше должны узнать в нем своих родителей, зрители постарше должны в нем узнать себя.

    Качество фильма: DVDRip /4 x DVD9 R5- лицензионные диски от CD Land
    Тип видео: AVI
    Информация о видео: 720x400 (16:9), 25.000 fps, XviD ~ 1800 kbps avg, 0.250 bit/pixel
    Информация о звуке 1: 48 kHz, Dolby AC3, 2 ch, 128 kbps,русский- первый сезон любимого сериала
    Информация о звуке 2: 48 kHz, Dolby AC3, 2 ch, 192 kbps,русский- второй сезон любимого сериала
    Раздача от:
    MediaInfo

    Общее
    Полное имя : Posledniy.iz.Mogikyan.2013.O.DVDRip_New_Team_by_Avproh1.avi
    Формат : AVI
    Формат/Информация : Audio Video Interleave
    Размер файла : 349 Мбайт
    Продолжительность : 24 м.
    Общий поток : 2002 Кбит/сек
    Программа кодирования : VirtualDubModRus 1.5.10.2 (build 2542/release)
    Библиотека кодирования : VirtualDubMod build 2542/release
    Видео
    Идентификатор : 0
    Формат : MPEG-4 Visual
    Профиль формата : Advanced Simple@L5
    Параметр BVOP формата : 1
    Параметр QPel формата : Нет
    Параметр GMC формата : Без точки перехода
    Параметр матрицы формата : Выборочная
    Идентификатор кодека : XVID
    Идентификатор кодека/Подсказка : XviD
    Продолжительность : 24 м.
    Битрейт : 1800 Кбит/сек
    Ширина : 720 пикселей
    Высота : 400 пикселей
    Соотношение сторон : 16:9
    Частота кадров : 25,000 кадров/сек
    Цветовое пространство : YUV
    Субдискретизация насыщенности : 4:2:0
    Битовая глубина : 8 бит
    Тип развёртки : Прогрессивная
    Метод сжатия : С потерями
    Бит/(Пиксели*Кадры) : 0.250
    Размер потока : 313 Мбайт (90%)
    Библиотека кодирования : XviD 73
    Аудио
    Идентификатор : 1
    Формат : AC-3
    Формат/Информация : Audio Coding 3
    Расширение режима : CM (complete main)
    Параметр Endianness формата : Big
    Идентификатор кодека : 2000
    Продолжительность : 24 м.
    Вид битрейта : Постоянный
    Битрейт : 192 Кбит/сек
    Каналы : 2 канала
    Расположение каналов : Front: L R
    Частота : 48,0 КГц
    Битовая глубина : 16 бит
    Метод сжатия : С потерями
    Размер потока : 33,4 Мбайт (10%)
    Выравнивание : Разделение по промежуткам
    Продолжительность промежутка : 40 мс. (1,00 видеокадр)
    Время предзагрузки промежутка : 500 мс.

    Скриншоты для ознакомления:



    Сравнение с SATRip:

    http://rutor.org/torrent/348402/
    http://screenshotcomparison.com/comparison/99144- у конкурента недокроп справа и картинка хуже.

    Торрент заменен 7 ноября 2014 года, добавлен первый сезон любимого сериала
    Размер скачиваемого торрента: 9.23 GB (9915037696 Bytes)

    Последний из Магикян (2013) DVDRip от New-Team | лицензия торрент скачать бесплатно
    загрузка...
    Рейтинг →
     (голосов: 1, оценка 4/5, голосовать можно 1 раз )

    Другие торренты по теме:

  • Последнее завещание Нобеля / Nobels testamente (2012) BDRip 1080p от R.G. GoldenShara | Лицензия торрент скачать бесплатно
  • Индиана Джонс и последний крестовый поход / Indiana Jones and the Last Crusade (1989) HDRip от Scarabey | Р торрент скачать бесплатно
  • Городские легенды 2: Последний отрезок / Urban Legends: Final Cut (2000) DVDRip торрент скачать бесплатно
  • Последний киносеанс / The Last Picture Show (1971) BDRip от HQCLUB торрент скачать бесплатно
  • Последний король Шотландии / The Last King of Scotland (2006) HDRip от Scarabey | D торрент скачать бесплатно
  • Владимир Макаров - Последняя электричка (2002) Mp3 торрент скачать бесплатно
  • Джон Гришэм - Последний шанс (2007) (2011) MP3 торрент скачать бесплатно
  • Последняя истина / True Blue (2001) WEBDLRip-AVC от NovaLan торрент скачать бесплатно


    • Комментарии (0):

      Информация

      Информация

        Посетители, находящиеся в группе Гости, не могут оставлять комментарии в данной новости.

        ↓ Меню



        ↓ Опрос

        А Вы добавили сайт в закладки?
        Да
        Не


        Top 10 за неделю (Фильмы)