.
Авторизация | Регистрация
» » Если я останусь / If I Stay (2014) BDRip 720p | звук с CAMRip скачать через торрент бесплатно




    Если я останусь / If I Stay (2014) BDRip 720p | звук с CAMRip скачать через торрент бесплатно

    Опубликовал: Админ | Дата: 27-02-2015, 11:10 | Просмотров: 147


    Детально о кино
    Русское название:Если я останусь
    Русское название в мировом прокате:If I Stay
    Создали в:2014
    Категория жанра:Драма
    Главный режиссер:Р.Дж. Катлер
    Актеры:Хлоя Грейс Морец, Мирей Инос, Джейми Блэкли, Джошуа Леонард, Лиана Либерато, Стейси Кич, Габриель Роз, Джейкоб Дейвис, Али Милнер, Аиша Хиндс
    Сюжет фильма:
    Мия — талантливая девушка, влюбленная в классическую музыку, в свою виолончель и рокера Адама. Но после автокатастрофы Мия оказывается в коме. Пока тело девушки лежит в больнице, ее душа должна решить, хочет ли она жить дальше или же лучше отправиться в мир иной вслед за своими родными.

    Снималось в:США
    Время просмотра:01:46:40
    Перевод текста:Дублированный звук с CAMRip
    Отсутствует перевод: 00:49:27-00:50:33
    Файл
    Кодек для видео:H.264
    Качество фильма:BDRip 720p
    Информация о видео:MPEG-4/AVC, 1280x536 (2.40 :1), 23.976 fps ~ 5820 Kbps
    Информация о звуке:
    Аудио #1: AC3, 48 KHz 2 ch ~ 192 Kb/s (русский)
    Аудио #2: DTS , 48 KHz 6 ch ~ 1510 Kb/s (английский)
    Субтитры:Отсутствуют
    MI:

    Общее
    Уникальный идентификатор : 251111169935708012470397257180614551787 (0xBCEA408D39B6617F8A2687B7AC18E8EB)
    Полное имя : Q:TorFIf.I.Stay.2014.720p.BluRay.x264.mkv
    Формат : Matroska
    Версия формата : Version 2
    Размер файла : 5,60 Гбайт
    Продолжительность : 1 ч. 46 м.
    Общий поток : 7519 Кбит/сек
    Дата кодирования : UTC 2014-11-08 05:27:54
    Программа кодирования : mkvmerge v5.4.0 (;Piper;) built on Mar 10 2012 13:34:39
    Библиотека кодирования : libebml v1.2.3 + libmatroska v1.3.0
    Видео
    Идентификатор : 1
    Формат : AVC
    Формат/Информация : Advanced Video Codec
    Профиль формата : High@L4.1
    Параметр CABAC формата : Да
    Параметр ReFrames формата : 5 кадров
    Режим смешивания : Header stripping
    Идентификатор кодека : V_MPEG4/ISO/AVC
    Продолжительность : 1 ч. 46 м.
    Битрейт : 5820 Кбит/сек
    Ширина : 1280 пикселей
    Высота : 536 пикселей
    Соотношение сторон : 2,40:1
    Частота кадров : 23,976 кадра/сек
    Цветовое пространство : YUV
    Субдискретизация насыщенности : 4:2:0
    Битовая глубина : 8 бит
    Тип развёртки : Прогрессивная
    Бит/(Пиксели*Кадры) : 0.354
    Размер потока : 4,22 Гбайт (75%)
    Библиотека кодирования : x264 core 142 r2479 dd79a61
    Настройки программы : cabac=1/ref=5/deblock=1:0:0/analyse=0x3:0x133/me=umh/subme=7/psy=1/psy_rd=1.00:0.00/mixed_ref=1/me_range=16/chroma_me=1/trellis=1/8x8dct=1/cqm=0/deadzone=21,11/fast_pskip=0/chroma_qp_offset=-2/threads=18/lookahead_threads=3/sliced_threads=0/nr=0/decimate=1/interlaced=0/bluray_compat=0/constrained_intra=0/bframes=3/b_pyramid=2/b_adapt=1/b_bias=0/direct=1/weightb=1/open_gop=0/weightp=2/keyint=250/keyint_min=23/scenecut=40/intra_refresh=0/rc_lookahead=40/rc=2pass/mbtree=1/bitrate=5820/ratetol=1.0/qcomp=0.60/qpmin=0/qpmax=69/qpstep=4/cplxblur=20.0/qblur=0.5/ip_ratio=1.40/aq=1:1.00
    Язык : English
    Default : Да
    Forced : Нет
    Аудио #1
    Идентификатор : 2
    Формат : AC-3
    Формат/Информация : Audio Coding 3
    Расширение режима : CM (complete main)
    Режим смешивания : Header stripping
    Идентификатор кодека : A_AC3
    Продолжительность : 1 ч. 46 м.
    Вид битрейта : Постоянный
    Битрейт : 192 Кбит/сек
    Каналы : 2 канала
    Расположение каналов : Front: L R
    Частота : 48,0 КГц
    Битовая глубина : 16 бит
    Метод сжатия : С потерями
    Размер потока : 146 Мбайт (3%)
    Заголовок : DUBCAMRip
    Язык : Russian
    Default : Да
    Forced : Нет
    Аудио #2
    Идентификатор : 3
    Формат : DTS
    Формат/Информация : Digital Theater Systems
    Режим смешивания : Header stripping
    Идентификатор кодека : A_DTS
    Продолжительность : 1 ч. 46 м.
    Вид битрейта : Постоянный
    Битрейт : 1510 Кбит/сек
    Каналы : 6 каналов
    Расположение каналов : Front: L C R, Side: L R, LFE
    Частота : 48,0 КГц
    Битовая глубина : 24 бит
    Метод сжатия : С потерями
    Размер потока : 1,12 Гбайт (20%)
    Язык : English
    Default : Нет
    Forced : Нет
    Меню
    00:00:00.000 : en:00:00:00.000
    00:03:20.367 : en:00:03:20.367
    00:07:23.902 : en:00:07:23.902
    00:11:31.608 : en:00:11:31.608
    00:14:43.716 : en:00:14:43.716
    00:19:12.485 : en:00:19:12.485
    00:23:19.607 : en:00:23:19.607
    00:25:19.268 : en:00:25:19.268
    00:27:26.436 : en:00:27:26.436
    00:30:46.011 : en:00:30:46.011
    00:32:11.596 : en:00:32:11.596
    00:34:38.368 : en:00:34:38.368
    00:37:21.906 : en:00:37:21.906
    00:40:41.189 : en:00:40:41.189
    00:44:02.223 : en:00:44:02.223
    00:46:58.899 : en:00:46:58.899
    00:49:07.820 : en:00:49:07.820
    00:52:06.332 : en:00:52:06.332
    00:55:42.756 : en:00:55:42.756
    00:59:01.580 : en:00:59:01.580
    01:00:42.347 : en:01:00:42.347
    01:05:39.310 : en:01:05:39.310
    01:10:10.039 : en:01:10:10.039
    01:13:48.924 : en:01:13:48.924
    01:16:18.407 : en:01:16:18.407
    01:18:54.730 : en:01:18:54.730
    01:24:05.415 : en:01:24:05.415
    01:27:44.468 : en:01:27:44.468
    01:29:50.176 : en:01:29:50.176
    01:33:37.028 : en:01:33:37.028
    01:38:16.307 : en:01:38:16.307
    01:40:25.353 : en:01:40:25.353

    Семпл
    Скриншоты для ознакомления

    Размер скачиваемого торрента: 5.60 GB (6015026008 Bytes)

    Если я останусь/If I Stay (2014) BDRip 720p | звук с CAMRip скачать через торрент бесплатно
    загрузка...
    Рейтинг →
     (голосов: 1, оценка 5/5, голосовать можно 1 раз )

    Другие торренты по теме:



      Комментарии (0):

      Информация

      Информация

        Посетители, находящиеся в группе Гости, не могут оставлять комментарии в данной новости.

        ↓ Меню



        ↓ Опрос

        А Вы добавили сайт в закладки?
        Да
        Не


        Top 10 за неделю (Фильмы)