.
Авторизация | Регистрация
Хочешь лучшие торренты? Добавь свой email!
Добавить
» » Звонок 2 / Ringu 2 (1999) BDRip 720p | A скачать через торрент бесплатно




    Звонок 2 / Ringu 2 (1999) BDRip 720p | A скачать через торрент бесплатно

    Опубликовал: Админ | Дата: 27-02-2015, 11:10 | Просмотров: 260

    Звонок 2/Ringu 2 (1999)

    Детально о кино
    Русское название:Звонок 2
    Русское название в мировом прокате:Ringu 2
    Создали в:1999
    Категория жанра:ужасы
    Главный режиссер:Хидео Наката
    Актеры:Мики Накатани, Хитоми Сато, Кёко Фукада, Фумиё Кохината, Кендзиро Ишимару, Юрэй Янаги, Рикия Отака, Ёити Нумата, Масако, Мивако Кадзи
    Сюжет фильма:Смертоносная пленка снова затягивает в свои сети доверчивых людей. Зловещий призрак из телевизора, Садако Имамура, возвращается! Перед вами — продолжение мегахита японского кинопроката Звонок, одной из самых страшных кинокартин всех времен.
    На этот раз главным персонажем становится девушка погибшего в первой части репортера. Она пытается выйти на след того, что стоит за не слишком дружелюбной видеопленкой...

    Снималось в:Japan
    Киностудия:Kadokawa Shoten Publishing Co., Ring 2 Production Group, Asmik Ace Entertainment
    Время просмотра:01:35:17
    Перевод текста:авторский (одноголосый закадровый)
    Субтитры:русские, английские
    Файл
    Кодек для видео:MPEG-4 AVC/H.264
    Качество фильма:BDRip 720p
    Информация о видео:1280 x 690 (1,85:1), 4 529 kbps, 23.976 fps, 0.214 b/px
    Информация о звуке:
    Информация о звуке # 1:АС3, 6 ch, 448 kbps, 48 000 Hz Одноголосый закадровый (Ю.Сербин)
    Информация о звуке # 2:АС3, 6 ch, 384 kbps, 48 000 Hz Одноголосый закадровый (А.Гаврилов)
    Информация о звуке # 3:АС3, 6 ch, 448 kbps, 48 000 Hz Одноголосый закадровый (С.Кузнецов)
    Информация о звуке # 4:АС3, 6 ch, 448 kbps, 48 000 Hz Оригинальный (Japanese)
    MediaInfo
    Общее
    Уникальный идентификатор : 242581020814734392211171240837077266384 (0xB67F67BAB5A6C04680C2EFCE7B73EFD0)
    Полное имя : D:1999 Звонок 2 BDRip 720p.mkv
    Формат : Matroska
    Версия формата : Version 4/Version 2
    Размер файла : 4,25 Гбайт
    Продолжительность : 1 ч. 35 м.
    Общий поток : 6384 Кбит/сек
    Название фильма : Звонок 2/Ringu 2 (1999) BDRip 720p
    Дата кодирования : UTC 2014-11-05 16:52:55
    Программа кодирования : mkvmerge v7.2.0 (;On Every Street;) 32bit built on Sep 13 2014 15:42:11
    Библиотека кодирования : libebml v1.3.0 + libmatroska v1.4.1
    DURATION : 01:35:17.696000000
    NUMBER_OF_FRAMES : 178678
    NUMBER_OF_BYTES : 320190976
    _STATISTICS_WRITING_APP : mkvmerge v7.2.0 (;On Every Street;) 32bit built on Sep 13 2014 15:42:11
    _STATISTICS_WRITING_DATE_UTC : 2014-11-05 16:52:55
    _STATISTICS_TAGS : BPS DURATION NUMBER_OF_FRAMES NUMBER_OF_BYTES
    Видео
    Идентификатор : 1
    Формат : AVC
    Формат/Информация : Advanced Video Codec
    Профиль формата : High@L4.1
    Параметр CABAC формата : Да
    Параметр ReFrames формата : 9 кадров
    Идентификатор кодека : V_MPEG4/ISO/AVC
    Продолжительность : 1 ч. 35 м.
    Битрейт : 4529 Кбит/сек
    Ширина : 1280 пикселей
    Высота : 690 пикселей
    Соотношение сторон : 1,85:1
    Режим частоты кадров : Постоянный
    Частота кадров : 23,976 кадра/сек
    Цветовое пространство : YUV
    Субдискретизация насыщенности : 4:2:0
    Битовая глубина : 8 бит
    Тип развёртки : Прогрессивная
    Бит/(Пиксели*Кадры) : 0.214
    Размер потока : 3,01 Гбайт (71%)
    Заголовок : 1999 Звонок 2/Ringu 2 BDRip 720p
    Библиотека кодирования : x264 core 133 r2334 a3ac64b
    Настройки программы : cabac=1/ref=9/deblock=1:-1:-1/analyse=0x3:0x113/me=umh/subme=10/psy=1/psy_rd=1.00:0.15/mixed_ref=1/me_range=24/chroma_me=1/trellis=2/8x8dct=1/cqm=0/deadzone=21,11/fast_pskip=0/chroma_qp_offset=-3/threads=6/lookahead_threads=1/sliced_threads=0/nr=0/decimate=1/interlaced=0/bluray_compat=0/constrained_intra=0/bframes=8/b_pyramid=2/b_adapt=2/b_bias=0/direct=1/weightb=1/open_gop=0/weightp=2/keyint=230/keyint_min=23/scenecut=40/intra_refresh=0/rc_lookahead=40/rc=crf/mbtree=0/crf=19.0/qcomp=0.60/qpmin=0/qpmax=69/qpstep=4/vbv_maxrate=50000/vbv_bufsize=62500/crf_max=0.0/nal_hrd=none/ip_ratio=1.40/pb_ratio=1.30/aq=1:1.00
    Язык : Japanese
    Default : Да
    Forced : Нет
    DURATION : 01:35:17.712000000
    NUMBER_OF_FRAMES : 137088
    NUMBER_OF_BYTES : 3325689025
    _STATISTICS_WRITING_APP : mkvmerge v7.2.0 (;On Every Street;) 32bit built on Sep 13 2014 15:42:11
    _STATISTICS_WRITING_DATE_UTC : 2014-11-05 16:52:55
    _STATISTICS_TAGS : BPS DURATION NUMBER_OF_FRAMES NUMBER_OF_BYTES
    Аудио #1
    Идентификатор : 2
    Формат : AC-3
    Формат/Информация : Audio Coding 3
    Расширение режима : CM (complete main)
    Параметр Endianness формата : Big
    Идентификатор кодека : A_AC3
    Продолжительность : 1 ч. 35 м.
    Вид битрейта : Постоянный
    Битрейт : 448 Кбит/сек
    Каналы : 6 каналов
    Расположение каналов : Front: L C R, Side: L R, LFE
    Частота : 48,0 КГц
    Битовая глубина : 16 бит
    Метод сжатия : С потерями
    Размер потока : 305 Мбайт (7%)
    Заголовок : Одноголосый закадровый
    Язык : Russian
    Default : Да
    Forced : Нет
    Аудио #2
    Идентификатор : 3
    Формат : AC-3
    Формат/Информация : Audio Coding 3
    Расширение режима : CM (complete main)
    Параметр Endianness формата : Big
    Идентификатор кодека : A_AC3
    Продолжительность : 1 ч. 35 м.
    Вид битрейта : Постоянный
    Битрейт : 384 Кбит/сек
    Каналы : 6 каналов
    Расположение каналов : Front: L C R, Side: L R, LFE
    Частота : 48,0 КГц
    Битовая глубина : 16 бит
    Метод сжатия : С потерями
    Размер потока : 262 Мбайт (6%)
    Заголовок : Одноголосый закадровый
    Язык : Russian
    Default : Нет
    Forced : Нет
    Аудио #3
    Идентификатор : 4
    Формат : AC-3
    Формат/Информация : Audio Coding 3
    Расширение режима : CM (complete main)
    Параметр Endianness формата : Big
    Идентификатор кодека : A_AC3
    Продолжительность : 1 ч. 35 м.
    Вид битрейта : Постоянный
    Битрейт : 448 Кбит/сек
    Каналы : 6 каналов
    Расположение каналов : Front: L C R, Side: L R, LFE
    Частота : 48,0 КГц
    Битовая глубина : 16 бит
    Метод сжатия : С потерями
    Размер потока : 305 Мбайт (7%)
    Заголовок : Одноголосый закадровый
    Язык : Russian
    Default : Нет
    Forced : Нет
    Аудио #4
    Идентификатор : 5
    Формат : AC-3
    Формат/Информация : Audio Coding 3
    Расширение режима : CM (complete main)
    Параметр Endianness формата : Big
    Идентификатор кодека : A_AC3
    Продолжительность : 1 ч. 35 м.
    Вид битрейта : Постоянный
    Битрейт : 448 Кбит/сек
    Каналы : 6 каналов
    Расположение каналов : Front: L C R, Side: L R, LFE
    Частота : 48,0 КГц
    Битовая глубина : 16 бит
    Метод сжатия : С потерями
    Размер потока : 305 Мбайт (7%)
    Заголовок : Оригинальный
    Язык : Japanese
    Default : Нет
    Forced : Нет
    Текст #1
    Идентификатор : 6
    Формат : UTF-8
    Идентификатор кодека : S_TEXT/UTF8
    Идентификатор кодека/Информация : UTF-8 Plain Text
    Заголовок : Русские
    Язык : Russian
    Default : Нет
    Forced : Нет
    Текст #2
    Идентификатор : 7
    Формат : UTF-8
    Идентификатор кодека : S_TEXT/UTF8
    Идентификатор кодека/Информация : UTF-8 Plain Text
    Заголовок : English
    Язык : English
    Default : Нет
    Forced : Нет

    Скриншоты для ознакомления

    Размер скачиваемого торрента: 4.25 GB (4562671487 Bytes)

    Звонок 2/Ringu 2 (1999) BDRip 720p | A скачать через торрент бесплатно
    загрузка...
    Рейтинг →
     (голосов: 1, оценка 4/5, голосовать можно 1 раз )

    Другие торренты по теме:

  • Звонок 2 / Ringu 2 (1999) BDRip 720p by msltel | A скачать через торрент бесплатно
  • Звонок 2 / Ringu 2 (1999) BDRip 1080p by msltel | A
  • Звонок 2 / The Ring Two (2005) HDRip от Scarabey | D скачать через торрент бесплатно
  • Звонок Ангелу / Llamando a un angel (2008) DVDRip от Кинорадиомагия | P 2
  • Невероятный Дракула 2. Последний звонок. Коллекционное издание (2016) PC


    • Комментарии (0):

      Информация

      Информация

        Посетители, находящиеся в группе Гости, не могут оставлять комментарии в данной новости.

        ↓ Меню



        ↓ Опрос

        А Вы добавили сайт в закладки?
        Да
        Не


        Top 10 за месяц (Фильмы)