.
Авторизация | Регистрация
Хочешь лучшие торренты? Добавь свой email!
Добавить
» » Геракл / Hercules (2014) BDRip от ExKinoRay | EXTENDED | Чистый звук скачать через торрент бесплатно




    Геракл / Hercules (2014) BDRip от ExKinoRay | EXTENDED | Чистый звук скачать через торрент бесплатно

    Опубликовал: Админ | Дата: 27-02-2015, 11:10 | Просмотров: 130


    Детально о кино
    Русское название:Геракл
    Русское название в мировом прокате:Hercules
    Создали в:2014
    Категория жанра:боевик, приключения, фэнтези
    Главный режиссер:Бретт Рэтнер
    Актеры:Дуэйн Джонсон, Аксель Хенни, Иэн МакШейн, Джон Хёрт, Руфус Сьюэлл, Ингрид Больсё Бердаль, Рис Ричи, Джозеф Файнс, Тобиас Зантельман, Питер Муллан
    Сюжет фильма:
    Более тысячи лет назад измученная душа скиталась по Земле, полубог, получеловек — Геракл — могучий сын царя богов Зевса, совершив все 12 подвигов, потерял семью и теперь находит утешение только в кровавых битвах. За эти годы он собирает вокруг себя шестерых таких же потерянных воинов, единственным смыслом жизни для которых стали сражения и присутствие смертельной опасности. Эти мужчины и женщина никогда не задают вопрос, где, почему или с кем они идут сражаться; только, сколько им заплатят. Зная это, фракийский царь Котис нанимает этих воинов, чтобы они обучили его солдат и сделали из них самую сильную и великую армию всех времен.

    Снималось в:США/Flynn Picture Company, Metro-Goldwyn-Mayer (MGM), Paramount Pictures, Radical Studios
    Время просмотра:01:41:37
    Тип перевода:Дублированное Чистый звук
    Примечание:EXTENDED версия, длиннее театральной ~3 минуты. Расширенные сцены переведены русскими субтитрами
    Файл
    Кодек для видео:XviD
    Качество фильма:BDRip
    Информация о видео:656x272 (2,40:1), 23,976 fps, XviD 73 ~896 kbps avg, 0.209 bit/pixel
    Информация о звуке:48.0 kHz, MPEG Audio 3, 2 ch, 128 Kbps Чистый звук
    Субтитры:Русские форсированные вшитые
    MI
    Общее
    Полное имя : D:ВидеоHercules 2014 EXTENDED .BDRip 745 by Vovan366 (ExKinoRay).avi
    Формат : AVI
    Формат/Информация : Audio Video Interleave
    Размер файла : 743 Мбайт
    Продолжительность : 1 ч. 41 м.
    Режим общего битрейта : Переменный
    Общий поток : 1023 Кбит/сек
    Программа кодирования : VirtualDubMod 1.5.10.3 | www.virtualdub-fr.org || (build 2550/release)
    Библиотека кодирования : VirtualDubMod build 2550/release
    Видео
    Идентификатор : 0
    Формат : MPEG-4 Visual
    Профиль формата : Advanced Simple@L5
    Параметр BVOP формата : 2
    Параметр QPel формата : Нет
    Параметр GMC формата : Без точки перехода
    Параметр матрицы формата : Выборочная
    Идентификатор кодека : XVID
    Идентификатор кодека/Подсказка : XviD
    Продолжительность : 1 ч. 41 м.
    Битрейт : 896 Кбит/сек
    Ширина : 656 пикселей
    Высота : 272 пикселя
    Соотношение сторон : 2,40:1
    Частота кадров : 23,976 кадра/сек
    Цветовое пространство : YUV
    Субдискретизация насыщенности : 4:2:0
    Битовая глубина : 8 бит
    Тип развёртки : Прогрессивная
    Метод сжатия : С потерями
    Бит/(Пиксели*Кадры) : 0.209
    Размер потока : 651 Мбайт (88%)
    Библиотека кодирования : XviD 73
    Аудио
    Идентификатор : 1
    Формат : MPEG Audio
    Версия формата : Version 1
    Профиль формата : Layer 3
    Режим : Joint stereo
    Расширение режима : MS Stereo
    Идентификатор кодека : 55
    Идентификатор кодека/Подсказка : MP3
    Продолжительность : 1 ч. 41 м.
    Вид битрейта : Переменный
    Битрейт : 114 Кбит/сек
    Номинальный битрейт : 128 Кбит/сек
    Каналы : 2 канала
    Частота : 48,0 КГц
    Метод сжатия : С потерями
    Размер потока : 83,2 Мбайт (11%)
    Выравнивание : Соединение по промежуткам
    Продолжительность промежутка : 24 мс. (0,58 видеокадр)
    Время предзагрузки промежутка : 493 мс.
    Библиотека кодирования : LAME3.99r
    Залил: Wazzzup RK
    Размер скачиваемого торрента: 743.30 MB (779409408 Bytes)


    Геракл/Hercules (2014) BDRip от ExKinoRay | EXTENDED | Чистый звук скачать через торрент бесплатно
    загрузка...
    Рейтинг →
     (голосов: 1, оценка 4/5, голосовать можно 1 раз )

    Другие торренты по теме:

  • Геракл 3D / Hercules: The Legend Begins (2014) HD 720p | L1 | Трейлер
  • Геракл: Начало легенды скачать через торрент бесплатно
  • Геракл: Начало легенды / The Legend of Hercules (2014) CAMRip
  • Геракл: Начало легенды / The Legend of Hercules (2014) CAMRip от Goliaf
  • Геракл: Начало легенды / The Legend of Hercules (2014) CAMRip *PROPER*
  • OST - Геракл: Начало легенды / The Legend of Hercules (2014) MP3 скачать через торрент бесплатно
  • Геракл: Начало легенды / The Legend of Hercules (2014) WEBRip | Звук с CAMRip скачать через торрент бесплатно
  • Геракл: Начало легенды / The Legend of Hercules (2014) HDRip | Звук с CAMRip скачать через торрент бесплатно


    • Комментарии (0):

      Информация

      Информация

        Посетители, находящиеся в группе Гости, не могут оставлять комментарии в данной новости.

        ↓ Меню



        ↓ Опрос

        А Вы добавили сайт в закладки?
        Да
        Не


        Top 10 за месяц (Фильмы)