.
Авторизация | Регистрация
Хочешь лучшие торренты? Добавь свой email!
Добавить
» » Посвященный / The Giver (2014) BDRemux 1080p | US Transfer | D | Лицензия торрент скачать бесплатно




    Посвященный / The Giver (2014) BDRemux 1080p | US Transfer | D | Лицензия торрент скачать бесплатно

    Опубликовал: Админ | Дата: 27-02-2015, 11:10 | Просмотров: 168



    Детально о кино
    Русское название: Посвященный
    Русское название в мировом прокате: The Giver
    Создали в: 2014
    Категория жанра:фантастика, драма
    Главный режиссер: Филлип Нойс
    Актеры: Брентон Туэйтс, Мэрил Стрип, Джефф Бриджес, Александр Скарсгард, Кэти Холмс, Тейлор Свифт, Камерон Монахэн, Одейя Раш, Эмма Трамбле, Катарина Дэмм

    Сюжет фильма:Юный Джонас живет в идеальном, максимально цивилизованном обществе будущего, где больше нет войн, боли, страданий, радости, воспоминаний. Для каждого члена здесь определен идеальный порядок существования, и теперь никому не приходится выбирать шаг, мысль, цвет - все вокруг однозначно серое... По решению Совета общества Джонас назначается Хранителем памяти, которую он должен перенять у Учителя по имени Дающий. Юноше открывается правда о настоящем мире, но чтобы освободить свой мир, он должен бросить ему вызов...



    Снималось в: США
    Время просмотра: 01:37:12
    Перевод текста:Профессиональный(полное дублирование)-Лицензия | BD Rus

    Файл
    Качество фильма:BDRemux 1080p | US Transfer
    Тип видео: MKV
    Информация о видео: MPEG4/AVC, 1920х1080 (16:9), 25791 Кбит/сек, 23.976 кадра/сек
    Информация о звуке 1: AC3, 6 каналов, 640 Кбит/сек |Русский
    Информация о звуке 2: DTS, 6 каналов, 1509 Кбит/сек |Русский
    Информация о звуке 3: DTS-HD, 6 каналов, 3930/1509 Кбит/сек |Английский
    Субтитры: Английские (Full, SDH)
    Навигация по главам: Есть

    Доп. информация:
    Синхронизация русской дорожки:batonchik

    MediaInfo:
    Общее
    Уникальный идентификатор : 179695606403229311342416839429629967468 (0x87301D6BB42EFBE298CFD9EF84707C6C)
    Полное имя : The Giver. (2014) BDRemux 1080p.mkv
    Формат : Matroska
    Версия формата : Version 2
    Размер файла : 21,7 Гбайт
    Продолжительность : 1 ч. 37 м.
    Режим общего битрейта : Переменный
    Общий поток : 31,9 Мбит/сек
    Название фильма : The Giver. 2014 | US Transfer
    Дата кодирования : UTC 2014-11-09 09:53:05
    Программа кодирования : mkvmerge v5.8.0 (;No Sleep/Pillow;) built on Sep 2 2012 15:37:04
    Библиотека кодирования : libebml v1.2.3 + libmatroska v1.3.0

    Видео
    Идентификатор : 1
    Формат : AVC
    Формат/Информация : Advanced Video Codec
    Профиль формата : High@L4.1
    Параметр CABAC формата : Да
    Параметр ReFrames формата : 2 кадра
    Идентификатор кодека : V_MPEG4/ISO/AVC
    Продолжительность : 1 ч. 37 м.
    Вид битрейта : Переменный
    Ширина : 1920 пикселей
    Высота : 1080 пикселей
    Соотношение сторон : 16:9
    Режим частоты кадров : Постоянный
    Частота кадров : 23,976 кадра/сек
    Цветовое пространство : YUV
    Субдискретизация насыщенности : 4:2:0
    Битовая глубина : 8 бит
    Тип развёртки : Прогрессивная
    Заголовок : US Transfer
    Язык : English
    Default : Да
    Forced : Нет

    Аудио #1
    Идентификатор : 2
    Формат : AC-3
    Формат/Информация : Audio Coding 3
    Расширение режима : CM (complete main)
    Параметр Endianness формата : Big
    Идентификатор кодека : A_AC3
    Продолжительность : 1 ч. 37 м.
    Вид битрейта : Постоянный
    Битрейт : 640 Кбит/сек
    Каналы : 6 каналов
    Расположение каналов : Front: L C R, Side: L R, LFE
    Частота : 48,0 КГц
    Битовая глубина : 16 бит
    Метод сжатия : С потерями
    Размер потока : 445 Мбайт (2%)
    Заголовок : AC3 | D | Blu-Ray Rus
    Язык : Russian
    Default : Да
    Forced : Нет

    Аудио #2
    Идентификатор : 3
    Формат : DTS
    Формат/Информация : Digital Theater Systems
    Режим : 16
    Параметр Endianness формата : Big
    Идентификатор кодека : A_DTS
    Продолжительность : 1 ч. 37 м.
    Вид битрейта : Постоянный
    Битрейт : 1510 Кбит/сек
    Каналы : 6 каналов
    Расположение каналов : Front: L C R, Side: L R, LFE
    Частота : 48,0 КГц
    Битовая глубина : 24 бит
    Метод сжатия : С потерями
    Задержка видео : 3 мс.
    Размер потока : 1,03 Гбайт (5%)
    Заголовок : DTS | D | Blu-Ray Rus
    Язык : Russian
    Default : Нет
    Forced : Нет

    Аудио #3
    Идентификатор : 4
    Формат : DTS
    Формат/Информация : Digital Theater Systems
    Профиль формата : MA/Core
    Режим : 16
    Параметр Endianness формата : Big
    Идентификатор кодека : A_DTS
    Продолжительность : 1 ч. 37 м.
    Вид битрейта : Переменный
    Битрейт : Неизвестно/1509 Кбит/сек
    Каналы : 6 каналов
    Расположение каналов : Front: L C R, Side: L R, LFE
    Частота : 48,0 КГц
    Битовая глубина : 24 бит
    Метод сжатия : Без потерь/Lossy
    Заголовок : DTS-HD | Original
    Язык : English
    Default : Нет
    Forced : Нет

    Текст #1
    Идентификатор : 5
    Формат : UTF-8
    Идентификатор кодека : S_TEXT/UTF8
    Идентификатор кодека/Информация : UTF-8 Plain Text
    Заголовок : Full
    Язык : English
    Default : Нет
    Forced : Нет

    Текст #2
    Идентификатор : 6
    Формат : UTF-8
    Идентификатор кодека : S_TEXT/UTF8
    Идентификатор кодека/Информация : UTF-8 Plain Text
    Заголовок : SDH
    Язык : English
    Default : Нет
    Forced : Нет

    Меню
    00:00:00.000 : en:00:00:00.000
    00:05:51.226 : en:00:05:51.226
    00:12:35.505 : en:00:12:35.505
    00:20:55.296 : en:00:20:55.296
    00:26:11.904 : en:00:26:11.904
    00:30:35.250 : en:00:30:35.250
    00:36:26.768 : en:00:36:26.768
    00:41:24.148 : en:00:41:24.148
    00:48:36.539 : en:00:48:36.539
    00:56:21.712 : en:00:56:21.712
    01:01:04.452 : en:01:01:04.452
    01:04:58.645 : en:01:04:58.645
    01:09:59.695 : en:01:09:59.695
    01:17:07.414 : en:01:17:07.414
    01:23:15.866 : en:01:23:15.866
    01:28:02.319 : en:01:28:02.319



    Релиз подготовил:

    Онлайн видео Посвященный


    Размер скачиваемого торрента: 21.66 GB (23259827745 Bytes)

    Посвященный/The Giver (2014) BDRemux 1080p | US Transfer | D | Лицензия торрент скачать бесплатно
    загрузка...
    Рейтинг →
     (голосов: 1, оценка 3/5, голосовать можно 1 раз )

    Другие торренты по теме:

  • Праздничный концерт посвященный 90-летию Динамо (2013) DVB
  • Праздничный концерт посвященный 90-летию Динамо (2013) HDTV 1080i
  • Концерт, посвященный Дню России Россия Молодая (2013) HDTVRip
  • Концерт, посвященный Дню России Россия Молодая (2013) DVB
  • Концерт, посвященный Дню России Россия Молодая (2013) HDTV 1080i
  • Посвященный HDRip (2014)
  • OST - Посвященный / The Giver (Original Motion Picture Soundtrack) (2014) MP3 от AGR - Generalfilm
  • Посвященный / The Giver скачать через торрент бесплатно


    • Комментарии (0):

      Информация

      Информация

        Посетители, находящиеся в группе Гости, не могут оставлять комментарии в данной новости.

        ↓ Меню



        ↓ Опрос

        А Вы добавили сайт в закладки?
        Да
        Не


        Top 10 за месяц (Фильмы)