.
Авторизация | Регистрация
Хочешь лучшие торренты? Добавь свой email!
Добавить
» » Пандорум / Pandorum (2009) BDRip 720p торрент скачать бесплатно




    Пандорум / Pandorum (2009) BDRip 720p торрент скачать бесплатно

    Опубликовал: Админ | Дата: 27-02-2015, 11:10 | Просмотров: 221

    Пандорум/Pandorum (2009) BDRip

    Детально о кино
    Русское название:Пандорум
    Русское название в мировом прокате:Pandorum
    Создали в:2009
    Категория жанра:ужасы, фантастика, боевик, триллер
    Главный режиссер:Кристиан Альварт
    Актеры:Деннис Куэйд, Бен Фостер, Кэм Жиганде, Антье Трауэ, Кунг Ле, Эдди Роус, Норман Ридус, Андре Хеннике, Фридерике Кемптер, Нильс-Бруно Шмидт
    Сюжет фильма:В безднах космоса движется звездолет. Два члена команды, пробудившиеся от гиперсна, оказываются в сложной ситуации: оборудование не работает, вспомнить они ничего не могут. Какова была их миссия? Сколько времени прошло? Где они? Кто они? На все эти вопросы у них нет ответов. К тому же, на корабле обнаруживаются чужие — злобные воины, которые крушат все на своем пути.
    У космических путешественников очень мало времени. Теперь для них собственные жизни — не самое главное, ибо только от них двоих, возможно, зависит спасение человечества. Нужно любой ценой восстановить управление кораблем, пока загадочный Пандорум не взял власть в свои руки...

    Снималось в:Germany, U.K.
    Киностудия:Constantin Film Produktion, Impact Pictures
    Время просмотра:01:48:05
    Перевод текста:профессиональный (полное дублирование), профессиональный (многоголосый закадровый), авторский (одноголосый закадровый)
    Субтитры:русские, английские
    Файл
    Кодек для видео:MPEG-4 AVC/H.264
    Качество фильма:BDRip (720p)
    Информация о видео:1280 x 544 (2,35:1), 10 000 kbps, 23.976 fps, 0.599 b/px
    Информация о звуке # 1:АС3, 6 ch, 384 kbps, 48 000 Hz дублированный (R5)
    Информация о звуке # 2:DTS, 6 ch, 1509 kbps, 48 000 Hz одноголосый закадровый (А.Гаврилов)
    Информация о звуке # 3:DTS, 6 ch, 1509 kbps, 48 000 Hz одноголосый закадровый (Ю.Немахов)
    Информация о звуке # 4:DTS, 6 ch, 1509 kbps, 48 000 Hz одноголосый закадровый (Ю.Живов)
    Информация о звуке # 5:АС3, 6 ch, 384 kbps, 48 000 Hz многоголосый закадровый (Украинский)
    Информация о звуке # 6:DTS, 6 ch, 1509 kbps, 48 000 Hz оригинальный
    MediaInfo
    Общее
    Уникальный идентификатор : 176609863985954204726258453234931987510 (0x84DDD292CC78803B919CDF5D8A43F436)
    Полное имя : D:2009 Пандорум BDRip 720p.mkv
    Формат : Matroska
    Версия формата : Version 4/Version 2
    Размер файла : 12,7 Гбайт
    Продолжительность : 1 ч. 48 м.
    Общий поток : 16,8 Мбит/сек
    Название фильма : Пандорум/Pandorum (2009) BDRip 720p
    Дата кодирования : UTC 2014-11-07 23:38:05
    Программа кодирования : mkvmerge v7.2.0 (;On Every Street;) 32bit built on Sep 13 2014 15:42:11
    Библиотека кодирования : libebml v1.3.0 + libmatroska v1.4.1
    DURATION : 01:37:25.595000000
    NUMBER_OF_FRAMES : 1026
    NUMBER_OF_BYTES : 31555
    _STATISTICS_WRITING_APP : mkvmerge v7.2.0 (;On Every Street;) 32bit built on Sep 13 2014 15:42:11
    _STATISTICS_WRITING_DATE_UTC : 2014-11-07 23:38:05
    _STATISTICS_TAGS : BPS DURATION NUMBER_OF_FRAMES NUMBER_OF_BYTES
    Видео
    Идентификатор : 1
    Формат : AVC
    Формат/Информация : Advanced Video Codec
    Профиль формата : High@L4.1
    Параметр CABAC формата : Да
    Параметр ReFrames формата : 12 кадров
    Идентификатор кодека : V_MPEG4/ISO/AVC
    Продолжительность : 1 ч. 48 м.
    Битрейт : 10000 Кбит/сек
    Ширина : 1280 пикселей
    Высота : 544 пикселя
    Соотношение сторон : 2,35:1
    Режим частоты кадров : Постоянный
    Частота кадров : 23,976 кадра/сек
    Цветовое пространство : YUV
    Субдискретизация насыщенности : 4:2:0
    Битовая глубина : 8 бит
    Тип развёртки : Прогрессивная
    Бит/(Пиксели*Кадры) : 0.599
    Размер потока : 7,30 Гбайт (58%)
    Заголовок : 2009 Пандорум/Pandorum BDRip 720p
    Библиотека кодирования : x264 core 130 r2273 b3065e6
    Настройки программы : cabac=1/ref=12/deblock=1:-3:-3/analyse=0x3:0x133/me=tesa/subme=10/psy=1/psy_rd=1.05:0.00/mixed_ref=1/me_range=24/chroma_me=1/trellis=2/8x8dct=1/cqm=0/deadzone=21,11/fast_pskip=0/chroma_qp_offset=-2/threads=12/lookahead_threads=2/sliced_threads=0/nr=0/decimate=0/interlaced=0/bluray_compat=0/constrained_intra=0/bframes=8/b_pyramid=2/b_adapt=2/b_bias=0/direct=3/weightb=1/open_gop=0/weightp=2/keyint=250/keyint_min=23/scenecut=40/intra_refresh=0/rc_lookahead=60/rc=2pass/mbtree=0/bitrate=10000/ratetol=1.0/qcomp=0.75/qpmin=0/qpmax=69/qpstep=4/cplxblur=20.0/qblur=0.5/vbv_maxrate=50000/vbv_bufsize=62500/nal_hrd=none/ip_ratio=1.20/pb_ratio=1.10/aq=1:0.60
    Язык : English
    Default : Да
    Forced : Нет
    Аудио #1
    Идентификатор : 2
    Формат : AC-3
    Формат/Информация : Audio Coding 3
    Расширение режима : CM (complete main)
    Параметр Endianness формата : Big
    Идентификатор кодека : A_AC3
    Продолжительность : 1 ч. 48 м.
    Вид битрейта : Постоянный
    Битрейт : 384 Кбит/сек
    Каналы : 6 каналов
    Расположение каналов : Front: L C R, Side: L R, LFE
    Частота : 48,0 КГц
    Битовая глубина : 16 бит
    Метод сжатия : С потерями
    Размер потока : 297 Мбайт (2%)
    Заголовок : Дублированный R5
    Язык : Russian
    Default : Да
    Forced : Нет
    Аудио #2
    Идентификатор : 3
    Формат : DTS
    Формат/Информация : Digital Theater Systems
    Режим : 16
    Параметр Endianness формата : Big
    Идентификатор кодека : A_DTS
    Продолжительность : 1 ч. 48 м.
    Вид битрейта : Постоянный
    Битрейт : 1509 Кбит/сек
    Каналы : 6 каналов
    Расположение каналов : Front: L C R, Side: L R, LFE
    Частота : 48,0 КГц
    Битовая глубина : 24 бит
    Метод сжатия : С потерями
    Размер потока : 1,14 Гбайт (9%)
    Заголовок : Одноголосый закадровый А. Гаврилов
    Язык : Russian
    Default : Нет
    Forced : Нет
    Аудио #3
    Идентификатор : 4
    Формат : DTS
    Формат/Информация : Digital Theater Systems
    Режим : 16
    Параметр Endianness формата : Big
    Идентификатор кодека : A_DTS
    Продолжительность : 1 ч. 48 м.
    Вид битрейта : Постоянный
    Битрейт : 1509 Кбит/сек
    Каналы : 6 каналов
    Расположение каналов : Front: L C R, Side: L R, LFE
    Частота : 48,0 КГц
    Битовая глубина : 24 бит
    Метод сжатия : С потерями
    Размер потока : 1,14 Гбайт (9%)
    Заголовок : Одноголосый закадровый Ю. Немахов
    Язык : Russian
    Default : Нет
    Forced : Нет
    Аудио #4
    Идентификатор : 5
    Формат : DTS
    Формат/Информация : Digital Theater Systems
    Режим : 16
    Параметр Endianness формата : Big
    Идентификатор кодека : A_DTS
    Продолжительность : 1 ч. 48 м.
    Вид битрейта : Постоянный
    Битрейт : 1509 Кбит/сек
    Каналы : 6 каналов
    Расположение каналов : Front: L C R, Side: L R, LFE
    Частота : 48,0 КГц
    Битовая глубина : 24 бит
    Метод сжатия : С потерями
    Размер потока : 1,14 Гбайт (9%)
    Заголовок : Одноголосый закадровый Ю. Живов
    Язык : Russian
    Default : Нет
    Forced : Нет
    Аудио #5
    Идентификатор : 6
    Формат : AC-3
    Формат/Информация : Audio Coding 3
    Расширение режима : CM (complete main)
    Параметр Endianness формата : Big
    Идентификатор кодека : A_AC3
    Продолжительность : 1 ч. 48 м.
    Вид битрейта : Постоянный
    Битрейт : 384 Кбит/сек
    Каналы : 6 каналов
    Расположение каналов : Front: L C R, Side: L R, LFE
    Частота : 48,0 КГц
    Битовая глубина : 16 бит
    Метод сжатия : С потерями
    Размер потока : 297 Мбайт (2%)
    Заголовок : Многоголосый закадровый
    Язык : Ukrainian
    Default : Нет
    Forced : Нет
    Аудио #6
    Идентификатор : 7
    Формат : DTS
    Формат/Информация : Digital Theater Systems
    Режим : 16
    Параметр Endianness формата : Big
    Идентификатор кодека : A_DTS
    Продолжительность : 1 ч. 48 м.
    Вид битрейта : Постоянный
    Битрейт : 1509 Кбит/сек
    Каналы : 6 каналов
    Расположение каналов : Front: L C R, Side: L R, LFE
    Частота : 48,0 КГц
    Битовая глубина : 24 бит
    Метод сжатия : С потерями
    Размер потока : 1,14 Гбайт (9%)
    Заголовок : Оригинальный
    Язык : English
    Default : Нет
    Forced : Нет
    Текст #1
    Идентификатор : 8
    Формат : UTF-8
    Идентификатор кодека : S_TEXT/UTF8
    Идентификатор кодека/Информация : UTF-8 Plain Text
    Заголовок : Русские
    Язык : Russian
    Default : Нет
    Forced : Нет
    Текст #2
    Идентификатор : 9
    Формат : UTF-8
    Идентификатор кодека : S_TEXT/UTF8
    Идентификатор кодека/Информация : UTF-8 Plain Text
    Заголовок : English
    Язык : English
    Default : Нет
    Forced : Нет
    Меню
    00:00:00.000 : en:Elysium/Main Title
    00:02:56.694 : en:Hyper-sleep Disorientation
    00:07:46.525 : en:Pyton;s Awaking
    00:12:18.505 : en:Claustrophobia
    00:18:03.433 : en:First Contact
    00:28:38.902 : en:Rescuing Shepherd
    00:36:41.967 : en:A Little Solidarity
    00:44:31.395 : en:Ecological Development
    00:50:09.608 : en:Tough to Kill
    00:57:23.583 : en:Corporal Gallo
    00:59:32.253 : en:Leland the Cook
    01:03:39.166 : en:Pandorum
    01:12:13.347 : en:Race to the Reactor
    01:25:28.349 : en:Duel to the Death
    01:36:48.926 : en:Brave New World
    01:41:26.473 : en:End Credits
    Скриншоты для ознакомления


    Онлайн видео Пандорум


    Размер скачиваемого торрента: 12.69 GB (13622137473 Bytes)

    Пандорум/Pandorum (2009) BDRip 720p торрент скачать бесплатно
    загрузка...
    Рейтинг →
     (голосов: 1, оценка 5/5, голосовать можно 1 раз )

    Другие торренты по теме:

  • OST - Пандорум / Pandorum (2009) MP3
  • Пандорум / Pandorum (2009) HDRip | КПК | D | Лицензия
  • Пандорум / Pandorum (2009) BDRip-AVC от MediaClub | D, A
  • Пандорум / Pandorum (2009) BDRip 720p от leonardo 59 Scarabey скачать через торрент бесплатно
  • Пандорум / Pandorum (2009) HDRip | D, A скачать через торрент бесплатно
  • Пандорум / Pandorum (2009) BDRip 1080p скачать через торрент бесплатно
  • Пандорум / Pandorum (2009) BDRip | A скачать через торрент бесплатно
  • Пандорум / Pandorum (2009) BDRip 1080p | Open Matte | D, A


    • Комментарии (0):

      Информация

      Информация

        Посетители, находящиеся в группе Гости, не могут оставлять комментарии в данной новости.

        ↓ Меню



        ↓ Опрос

        А Вы добавили сайт в закладки?
        Да
        Не


        Top 10 за месяц (Фильмы)