.
Авторизация | Регистрация
Хочешь лучшие торренты? Добавь свой email!
Добавить
» » Люди под лестницей / The People Under the Stairs (1991) BDRip 720p торрент скачать бесплатно




    Люди под лестницей / The People Under the Stairs (1991) BDRip 720p торрент скачать бесплатно

    Опубликовал: Админ | Дата: 27-02-2015, 11:10 | Просмотров: 168

    Люди под лестницей/The People Under the Stairs (1991)

    Детально о кино
    Русское название:Люди под лестницей
    Русское название в мировом прокате:The People Under the Stairs
    Создали в:1991
    Категория жанра:ужасы, триллер
    Главный режиссер:Уэс Крэйвен
    Актеры:Брэндон Квинтин Адамс, Эверет МакГилл, Уэнди Роби, А.Дж. Ленджер, Винг Реймз, Шон Уэйлен, Билл Коббс, Келли Джо Минтер, Джереми Робертс, Конни Мари Бразелтон
    Сюжет фильма:В каждом городе есть дом, о котором рассказывают ужасные вещи. Взрослые говорят об этом месте шепотом, а все соседские ребятишки обходят его стороной. От таких мрачных домов веет сыростью и смертью. И вряд ли найдется смельчак, который, даже на спор отважится приблизиться к страшному месту в сумраке ночи.
    Но случилось так, что однажды обыкновенный десятилетний мальчик вступил в жуткое жилище. Тот кошмар, который пришлось испытать маленькому герою, невозможно описать словами...

    Снималось в:USA
    Киностудия:Alive Films, Universal Pictures
    Время просмотра:01:41:56
    Перевод текста:профессиональный (полное дублирование), профессиональный (многоголосый закадровый), авторский (одноголосый закадровый)
    Субтитры:русские, английские
    Файл
    Кодек для видео:MPEG-4 AVC/H.264
    Качество фильма:BDRip (720p)
    Информация о видео:1280 x 704 (16:9), 7 877 kbps, 23.976 fps
    Информация о звуке # 1:DTS, 2 ch, 768 kbps, 48 000 Hz дублированный
    Информация о звуке # 2:АС3, 2 ch, 192 kbps, 48 000 Hz многоголосый закадровый (R5)
    Информация о звуке # 3:АС3, 2 ch, 192 kbps, 48 000 Hz многоголосый закадровый (Премьер)
    Информация о звуке # 4:АС3, 2 ch, 192 kbps, 48 000 Hz многоголосый закадровый (СТС)
    Информация о звуке # 5:DTS, 2 ch, 510 kbps, 48 000 Hz одноголосый закадровый (А.Гаврилов)
    Информация о звуке # 6:АС3, 2 ch, 192 kbps, 48 000 Hz многоголосый закадровый (Новый канал) (Украинский)
    Информация о звуке # 7:FLAC, 2 ch, 192 kbps, 48 000 Hz/24-bit оригинальный
    MediaInfo
    Общее
    Уникальный идентификатор : 224817701301259890122432604518368140031 (0xA9225075BB43C34D9E0C6E6C1E77DAFF)
    Полное имя : D:1991 Люди под лестницей BDRip 720p.mkv
    Формат : Matroska
    Версия формата : Version 4/Version 2
    Размер файла : 8,01 Гбайт
    Продолжительность : 1 ч. 41 м.
    Режим общего битрейта : Переменный
    Общий поток : 11,3 Мбит/сек
    Название фильма : Люди под лестницей/The People Under the Stairs (1991) BDRip 720p
    Дата кодирования : UTC 2014-11-05 18:44:15
    Программа кодирования : mkvmerge v7.2.0 (;On Every Street;) 32bit built on Sep 13 2014 15:42:11
    Библиотека кодирования : libebml v1.3.0 + libmatroska v1.4.1
    DURATION : 01:41:07.228000000
    NUMBER_OF_FRAMES : 1056
    NUMBER_OF_BYTES : 34301
    _STATISTICS_WRITING_APP : mkvmerge v7.2.0 (;On Every Street;) 32bit built on Sep 13 2014 15:42:11
    _STATISTICS_WRITING_DATE_UTC : 2014-11-05 18:44:15
    _STATISTICS_TAGS : BPS DURATION NUMBER_OF_FRAMES NUMBER_OF_BYTES
    Видео
    Идентификатор : 1
    Формат : AVC
    Формат/Информация : Advanced Video Codec
    Профиль формата : High@L4.1
    Параметр CABAC формата : Да
    Параметр ReFrames формата : 9 кадров
    Идентификатор кодека : V_MPEG4/ISO/AVC
    Продолжительность : 1 ч. 41 м.
    Ширина : 1280 пикселей
    Высота : 704 пикселя
    Соотношение сторон : 16:9
    Режим частоты кадров : Постоянный
    Частота кадров : 23,976 кадра/сек
    Цветовое пространство : YUV
    Субдискретизация насыщенности : 4:2:0
    Битовая глубина : 8 бит
    Тип развёртки : Прогрессивная
    Заголовок : 1991 Люди под лестницей/The People Under the Stairs BDRip 720p
    Библиотека кодирования : x264 core 142 r2479kMod dd79a61
    Настройки программы : cabac=1/ref=9/deblock=1:-3:-3/analyse=0x3:0x133/me=tesa/subme=10/psy=1/fade_compensate=0.00/psy_rd=1.00:0.05/mixed_ref=1/me_range=24/chroma_me=1/trellis=2/8x8dct=1/cqm=0/deadzone=21,11/fast_pskip=0/chroma_qp_offset=-3/threads=6/lookahead_threads=1/sliced_threads=0/nr=0/decimate=1/interlaced=0/bluray_compat=0/constrained_intra=0/fgo=0/bframes=12/b_pyramid=2/b_adapt=2/b_bias=0/direct=3/weightb=1/open_gop=0/weightp=2/keyint=250/keyint_min=23/scenecut=40/intra_refresh=0/rc_lookahead=60/rc=crf/mbtree=0/crf=18.5000/qcomp=0.65/qpmin=0/qpmax=69/qpstep=4/vbv_maxrate=62500/vbv_bufsize=78125/crf_max=0.0/nal_hrd=none/filler=0/ip_ratio=1.30/pb_ratio=1.20/aq=3:0.60
    Язык : English
    Default : Да
    Forced : Нет
    Коэффициенты матрицы : BT.709
    DURATION : 01:41:56.944000000
    NUMBER_OF_FRAMES : 146660
    NUMBER_OF_BYTES : 6023010184
    _STATISTICS_WRITING_APP : mkvmerge v7.2.0 (;On Every Street;) 32bit built on Sep 13 2014 15:42:11
    _STATISTICS_WRITING_DATE_UTC : 2014-11-05 18:44:15
    _STATISTICS_TAGS : BPS DURATION NUMBER_OF_FRAMES NUMBER_OF_BYTES
    Аудио #1
    Идентификатор : 2
    Формат : DTS
    Формат/Информация : Digital Theater Systems
    Режим : 16
    Параметр Endianness формата : Big
    Идентификатор кодека : A_DTS
    Продолжительность : 1 ч. 41 м.
    Вид битрейта : Постоянный
    Битрейт : 768 Кбит/сек
    Каналы : 2 канала
    Расположение каналов : Front: L R
    Частота : 48,0 КГц
    Битовая глубина : 24 бит
    Метод сжатия : С потерями
    Размер потока : 560 Мбайт (7%)
    Заголовок : Дублированный
    Язык : Russian
    Default : Да
    Forced : Нет
    Аудио #2
    Идентификатор : 3
    Формат : AC-3
    Формат/Информация : Audio Coding 3
    Расширение режима : CM (complete main)
    Параметр Endianness формата : Big
    Идентификатор кодека : A_AC3
    Продолжительность : 1 ч. 41 м.
    Вид битрейта : Постоянный
    Битрейт : 192 Кбит/сек
    Каналы : 2 канала
    Расположение каналов : Front: L R
    Частота : 48,0 КГц
    Битовая глубина : 16 бит
    Метод сжатия : С потерями
    Размер потока : 140 Мбайт (2%)
    Заголовок : Многоголосый закадровый
    Язык : Russian
    Default : Нет
    Forced : Нет
    Аудио #3
    Идентификатор : 4
    Формат : AC-3
    Формат/Информация : Audio Coding 3
    Расширение режима : CM (complete main)
    Параметр Endianness формата : Big
    Идентификатор кодека : A_AC3
    Продолжительность : 1 ч. 41 м.
    Вид битрейта : Постоянный
    Битрейт : 192 Кбит/сек
    Каналы : 2 канала
    Расположение каналов : Front: L R
    Частота : 48,0 КГц
    Битовая глубина : 16 бит
    Метод сжатия : С потерями
    Размер потока : 140 Мбайт (2%)
    Заголовок : Многоголосый закадровый
    Язык : Russian
    Default : Нет
    Forced : Нет
    Аудио #4
    Идентификатор : 5
    Формат : AC-3
    Формат/Информация : Audio Coding 3
    Расширение режима : CM (complete main)
    Параметр Endianness формата : Big
    Идентификатор кодека : A_AC3
    Продолжительность : 1 ч. 41 м.
    Вид битрейта : Постоянный
    Битрейт : 192 Кбит/сек
    Каналы : 2 канала
    Расположение каналов : Front: L R
    Частота : 48,0 КГц
    Битовая глубина : 16 бит
    Метод сжатия : С потерями
    Размер потока : 140 Мбайт (2%)
    Заголовок : Многоголосый закадровый
    Язык : Russian
    Default : Нет
    Forced : Нет
    Аудио #5
    Идентификатор : 6
    Формат : DTS
    Формат/Информация : Digital Theater Systems
    Режим : 16
    Параметр Endianness формата : Big
    Идентификатор кодека : A_DTS
    Продолжительность : 1 ч. 41 м.
    Вид битрейта : Постоянный
    Битрейт : 510 Кбит/сек
    Каналы : 2 канала
    Расположение каналов : Front: L R
    Частота : 48,0 КГц
    Битовая глубина : 24 бит
    Метод сжатия : С потерями
    Размер потока : 372 Мбайт (5%)
    Заголовок : Одноголосый закадровый
    Язык : Russian
    Default : Нет
    Forced : Нет
    Аудио #6
    Идентификатор : 7
    Формат : AC-3
    Формат/Информация : Audio Coding 3
    Расширение режима : CM (complete main)
    Параметр Endianness формата : Big
    Идентификатор кодека : A_AC3
    Продолжительность : 1 ч. 41 м.
    Вид битрейта : Постоянный
    Битрейт : 192 Кбит/сек
    Каналы : 2 канала
    Расположение каналов : Front: L R
    Частота : 48,0 КГц
    Битовая глубина : 16 бит
    Метод сжатия : С потерями
    Размер потока : 140 Мбайт (2%)
    Заголовок : Многоголосый закадровый
    Язык : Ukrainian
    Default : Нет
    Forced : Нет
    Аудио #7
    Идентификатор : 8
    Формат : FLAC
    Формат/Информация : Free Lossless Audio Codec
    Идентификатор кодека : A_FLAC
    Продолжительность : 1 ч. 41 м.
    Вид битрейта : Переменный
    Каналы : 2 канала
    Частота : 48,0 КГц
    Битовая глубина : 24 бит
    Заголовок : Оригинальный
    Библиотека кодирования : libFLAC 1.2.1 (UTC 2007-09-17)
    Язык : English
    Default : Нет
    Forced : Нет
    Текст #1
    Идентификатор : 9
    Формат : UTF-8
    Идентификатор кодека : S_TEXT/UTF8
    Идентификатор кодека/Информация : UTF-8 Plain Text
    Заголовок : Русские
    Язык : Russian
    Default : Нет
    Forced : Нет
    Текст #2
    Идентификатор : 10
    Формат : UTF-8
    Идентификатор кодека : S_TEXT/UTF8
    Идентификатор кодека/Информация : UTF-8 Plain Text
    Заголовок : English
    Язык : English
    Default : Нет
    Forced : Нет
    Меню
    00:00:00.000 : en:00:00:00.000
    00:05:16.983 : en:00:05:16.983
    00:11:31.232 : en:00:11:31.232
    00:16:12.346 : en:00:16:12.346
    00:22:11.121 : en:00:22:11.121
    00:26:25.250 : en:00:26:25.250
    00:34:19.015 : en:00:34:19.015
    00:41:25.858 : en:00:41:25.858
    00:47:24.258 : en:00:47:24.258
    00:52:10.336 : en:00:52:10.336
    00:57:08.383 : en:00:57:08.383
    01:00:07.562 : en:01:00:07.562
    01:06:10.550 : en:01:06:10.550
    01:11:16.772 : en:01:11:16.772
    01:16:05.811 : en:01:16:05.811
    01:23:38.222 : en:01:23:38.222
    01:29:38.999 : en:01:29:38.999
    01:38:22.688 : en:01:38:22.688

    Скриншоты для ознакомления

    Размер скачиваемого торрента: 8.01 GB (8603750050 Bytes)

    Люди под лестницей/The People Under the Stairs (1991) BDRip 720p торрент скачать бесплатно
    загрузка...
    Рейтинг →
     (голосов: 1, оценка 5/5, голосовать можно 1 раз )

    Другие торренты по теме:

  • Люди под лестницей / The People Under the Stairs (1991) DVDRip
  • Люди под лестницей / The People Under the Stairs (1991) HDRip от Leon-masl скачать через торрент бесплатно
  • Люди под лестницей / The People Under the Stairs (1991) HDRip от Scarabey | P скачать через торрент бесплатно


    • Комментарии (0):

      Информация

      Информация

        Посетители, находящиеся в группе Гости, не могут оставлять комментарии в данной новости.

        ↓ Меню



        ↓ Опрос

        А Вы добавили сайт в закладки?
        Да
        Не


        Top 10 за месяц (Фильмы)