.
Авторизация | Регистрация
» » Пристегните ремни / Allacciate le cinture (2014) BDRip 720p | Чистый звук торрент скачать бесплатно




    Пристегните ремни / Allacciate le cinture (2014) BDRip 720p | Чистый звук торрент скачать бесплатно

    Опубликовал: Админ | Дата: 27-02-2015, 11:10 | Просмотров: 154


    Детально о кино
    Русское название: Пристегните ремни
    Русское название в мировом прокате: Allacciate le cinture
    Создали в: 2014
    Категория жанра: комедия, мелодрама
    Главный режиссер: Ферзан Озпетек
    Актеры:Касия Смутняк, Франческо Арка, Филиппо Шиккьятано, Каролина Крешентини, Паола Миначчони, Елена София Риччи, Франческо Шианна, Карла Синьорис, Луиза Раньери, Джулия Микелини
    Сюжет фильма:Елена и Антонио точно не созданы друг для друга. Она — интеллигентная девушка из хорошей семьи, он — чувственное животное, хамоватый неграмотный механик. Они абсолютно разные — по характеру, жизненным приоритетам, отношению к миру. И, тем не менее, чувствуют непреодолимое взаимное притяжение, хотя всячески пытаются с ним справиться. Не только потому, что между ними нет ничего общего, но и по более важным причинам: у Елены роман с архитектором Джорджио, а Антонио встречается с ее лучшей подругой Сильвией. Однако страсть сильнее — и молодые люди женятся. Спустя несколько лет Елена понимает, что, возможно, совершила трагическую ошибку…

    Снималось в: Италия/RC Produzioni, Faros Film, Rai Cinema
    Время просмотра: 01:50:53
    Тип перевода:Дублированное чистый звукофициальный
    Файл
    Тип видео: MKV
    Качество фильма: BDRip 720p
    Информация о видео: 6000 kb/s, 1280x548
    Информация о звуке: Russian: AC3, 192 kb/s (2 ch)/Italian: AC3, 640 kb/s (6 ch)
    Субтитры: English, Italian


    MI
    Format : Matroska
    Format version : Version 4/Version 2
    File size : 5.30 GiB
    Duration : 1h 50mn
    Overall bit rate : 6 842 Kbps
    Encoded date : UTC 2014-11-09 00:14:43
    Writing application : mkvmerge v6.8.0 (;Theme for Great Cities;) 64bit built on Mar 2 2014 21:34:26
    Writing library : libebml v1.3.0 + libmatroska v1.4.1
    Video #1
    ID : 1
    Format : AVC
    Format/Info : Advanced Video Codec
    Format profile : High@L4.1
    Format settings, CABAC : Yes
    Format settings, ReFrames : 11 frames
    Codec ID : V_MPEG4/ISO/AVC
    Duration : 1h 50mn
    Bit rate : 6 000 Kbps
    Width : 1 280 pixels
    Height : 548 pixels
    Display aspect ratio : 2.35:1
    Frame rate mode : Constant
    Frame rate : 23.976 fps
    Color space : YUV
    Chroma subsampling : 4:2:0
    Bit depth : 8 bits
    Scan type : Progressive
    Bits/(Pixel*Frame) : 0.357
    Stream size : 4.55 GiB (86%)
    Title : Allacciate le cinture 2014
    Writing library : x264 core 142 r2453 ea0ca51
    Encoding settings : cabac=1/ref=11/deblock=1:-3:-3/analyse=0x3:0x133/me=umh/subme=11/psy=1/psy_rd=1.05:0.00/mixed_ref=1/me_range=24/chroma_me=1/trellis=2/8x8dct=1/cqm=0/deadzone=21,11/fast_pskip=0/chroma_qp_offset=-2/threads=3/lookahead_threads=1/sliced_threads=0/nr=0/decimate=0/interlaced=0/bluray_compat=0/constrained_intra=0/bframes=11/b_pyramid=2/b_adapt=2/b_bias=0/direct=3/weightb=1/open_gop=0/weightp=2/keyint=250/keyint_min=23/scenecut=40/intra_refresh=0/rc=2pass/mbtree=0/bitrate=6000/ratetol=1.0/qcomp=0.60/qpmin=0/qpmax=69/qpstep=4/cplxblur=20.0/qblur=0.5/ip_ratio=1.40/pb_ratio=1.30/aq=1:0.60
    Language : Italian
    Default : Yes
    Forced : No
    Audio #2
    ID : 2
    Format : AC-3
    Format/Info : Audio Coding 3
    Mode extension : CM (complete main)
    Format settings, Endianness : Big
    Codec ID : A_AC3
    Duration : 1h 50mn
    Bit rate mode : Constant
    Bit rate : 192 Kbps
    Channel(s) : 2 channels
    Channel positions : Front: L R
    Sampling rate : 48.0 KHz
    Bit depth : 16 bits
    Compression mode : Lossy
    Stream size : 152 MiB (3%)
    Language : Russian
    Default : Yes
    Forced : Yes
    Audio #3
    ID : 3
    Format : AC-3
    Format/Info : Audio Coding 3
    Mode extension : CM (complete main)
    Format settings, Endianness : Big
    Codec ID : A_AC3
    Duration : 1h 50mn
    Bit rate mode : Constant
    Bit rate : 640 Kbps
    Channel(s) : 6 channels
    Channel positions : Front: L C R, Side: L R, LFE
    Sampling rate : 48.0 KHz
    Bit depth : 16 bits
    Compression mode : Lossy
    Stream size : 508 MiB (9%)
    Language : Italian
    Default : No
    Forced : No
    Text #4
    ID : 4
    Format : UTF-8
    Codec ID : S_TEXT/UTF8
    Codec ID/Info : UTF-8 Plain Text
    Language : English
    Default : No
    Forced : No
    Text #5
    ID : 5
    Format : PGS
    Muxing mode : zlib
    Codec ID : S_HDMV/PGS
    Codec ID/Info : The same subtitle format used on BDs/HD-DVDs
    Language : Italian
    Default : No
    Forced : No
    Menu
    00:00:00.000 : en:00:00:00.000
    00:05:14.231 : en:00:05:14.231
    00:10:42.892 : en:00:10:42.892
    00:17:55.658 : en:00:17:55.658
    00:23:32.953 : en:00:23:32.953
    00:32:46.298 : en:00:32:46.298
    00:39:48.386 : en:00:39:48.386
    00:46:15.982 : en:00:46:15.982
    00:55:45.342 : en:00:55:45.342
    00:58:10.487 : en:00:58:10.487
    01:07:44.978 : en:01:07:44.978
    01:13:25.026 : en:01:13:25.026
    01:21:58.330 : en:01:21:58.330
    01:31:10.006 : en:01:31:10.006
    01:37:39.395 : en:01:37:39.395
    01:41:52.398 : en:01:41:52.398
    Скриншоты для ознакомления

    Размер скачиваемого торрента: 5.30 GB (5690851901 Bytes)

    Пристегните ремни/Allacciate le cinture (2014) BDRip 720p | Чистый звук торрент скачать бесплатно
    загрузка...
    Рейтинг →
     (голосов: 1, оценка 4/5, голосовать можно 1 раз )

    Другие торренты по теме:

  • Пристегните ремни / Allacciate le cinture скачать через торрент бесплатно
  • Пристегните ремни / Allacciate le cinture (2014) HDRip от TorrNada | КПК | Чистый звук торрент скачать бесплатно
  • Пристегните ремни / Allacciate le cinture (2014) BDRip 720p торрент скачать бесплатно
  • Пристегните ремни / Allacciate le cinture (2014) HDRip | Чистый звук торрент скачать бесплатно
  • Пристегните ремни / Allacciate le cinture (2014) HDRip | D | Чистый звук торрент скачать бесплатно
  • Пристегните ремни / Allacciate le cinture (2014) HDRip от Scarabey | D | Чистый звук скачать через торрент бесплатно
  • Пристегните ремни / Allacciate le cinture (2014) HDRip от Scarabey | D | Чистый звук скачать через торрент бесплатно
  • Ансамбль «Спейс» - Пристегните ремни (LP) торрент скачать бесплатно


    • Комментарии (0):

      Информация

      Информация

        Посетители, находящиеся в группе Гости, не могут оставлять комментарии в данной новости.

        ↓ Меню



        ↓ Опрос

        А Вы добавили сайт в закладки?
        Да
        Не


        Top 10 за неделю (Фильмы)