.
Авторизация | Регистрация
Хочешь лучшие торренты? Добавь свой email!
Добавить
» » Планета обезьян: Революция / Dawn of the Planet of the Apes (2014) DVDRip скачать через торрент бесплатно




    Планета обезьян: Революция / Dawn of the Planet of the Apes (2014) DVDRip скачать через торрент бесплатно

    Опубликовал: Админ | Дата: 27-02-2015, 11:10 | Просмотров: 151


    Русское название:Планета обезьян: Революция
    Русское название в мировом прокате:Dawn of the Planet of the Apes
    Создали в:2014
    Категория жанра:Фантастика, боевик, драма
    Главный режиссер:Мэтт Ривз
    Актеры:Энди Серкис, Джейсон Кларк, Гари Олдман, Кери Расселл, Тоби Кеббелл, Коди Смит-МакФи, Кирк Асеведо, Ник Тёрстон, Терри Нотари, Карин Коновал, Джуди Грир, Джон Эйз, Энрике Мурсиано
    Сюжет:Численность генетически модифицированных обезьян, возглавляемых Цезарем, продолжает увеличиваться, но обезьянам угрожают люди, которым удалось выжить во время ужасной эпидемии десятилетней давности. Поначалу между соперниками устанавливается хрупкий мир, но он оказывается недолговечным. Обезьяны и люди находятся на грани войны, в ходе которой станет понятно, кто из них в будущем станет безраздельно править планетой.
    Снималось в:США, Chernin Entertainment
    Время просмотра:02:05:05
    Перевод текста:Дублированный (лицензия)
    Качество фильма:DVDRip
    Информация о видео:XviD, 1885 Кбит/с, 720х384
    Информация о звуке rus:AC3, 6 ch, 384 Кбит/с
    Субтитры:Русские (отдельным файлом)
    Инфо
    Полное имя : E:Planeta.obezjan-Revoljucija.2014.tahiyPlaneta.obezjan-Revoljucija.2014.tahiy.avi
    Формат : AVI
    Формат/Информация : Audio Video Interleave
    Профиль формата : OpenDML
    Размер файла : 1,99 Гбайт
    Продолжительность : 2 ч. 5 м.
    Общий поток : 2282 Кбит/сек
    Программа кодирования : VirtualDubMod 1.5.10.3 | www.virtualdub-fr.org || (build 2550/release)
    Библиотека кодирования : VirtualDubMod build 2550/release
    Видео
    Идентификатор : 0
    Формат : MPEG-4 Visual
    Профиль формата : Advanced Simple@L5
    Параметр BVOP формата : 1
    Параметр QPel формата : Нет
    Параметр GMC формата : Без точки перехода
    Параметр матрицы формата : Default (MPEG)
    Идентификатор кодека : XVID
    Идентификатор кодека/Подсказка : XviD
    Продолжительность : 2 ч. 5 м.
    Битрейт : 1885 Кбит/сек
    Ширина : 720 пикселей
    Высота : 384 пикселя
    Соотношение сторон : 1,85:1
    Частота кадров : 25,000 кадров/сек
    Цветовое пространство : YUV
    Субдискретизация насыщенности : 4:2:0
    Битовая глубина : 8 бит
    Тип развёртки : Прогрессивная
    Метод сжатия : С потерями
    Бит/(Пиксели*Кадры) : 0.273
    Размер потока : 1,65 Гбайт (83%)
    Библиотека кодирования : XviD 1.2.1 (UTC 2008-12-04)
    Аудио
    Идентификатор : 1
    Формат : AC-3
    Формат/Информация : Audio Coding 3
    Расширение режима : CM (complete main)
    Параметр Endianness формата : Big
    Идентификатор кодека : 2000
    Продолжительность : 2 ч. 5 м.
    Вид битрейта : Постоянный
    Битрейт : 384 Кбит/сек
    Каналы : 6 каналов
    Расположение каналов : Front: L C R, Side: L R, LFE
    Частота : 48,0 КГц
    Битовая глубина : 16 бит
    Метод сжатия : С потерями
    Размер потока : 344 Мбайт (17%)
    Выравнивание : Разделение по промежуткам
    Продолжительность промежутка : 40 мс. (1,00 видеокадр)
    Время предзагрузки промежутка : 500 мс.



    Размер скачиваемого торрента: 1.99 GB (2140452324 Bytes)

    Планета обезьян: Революция/Dawn of the Planet of the Apes (2014) DVDRip скачать через торрент бесплатно
    загрузка...
    Рейтинг →
     (голосов: 1, оценка 5/5, голосовать можно 1 раз )

    Другие торренты по теме:

  • Планета обезьян: Коллекция / Planet of the Apes: Collection (1968-1973) BDRip от CinemaClub
  • OST - Планета Обезьян / Planet Of The Apes (2012) MP3
  • Планета обезьян / Planet of the Apes (2001) BDRip 1080p от denis 100 | D,P,A
  • OST - Планета обезьян: Революция / Dawn of the Planet of the Apes (2014) MP3 от AGR - Generalfilm скачать через торрент бесплатно
  • Планета обезьян: Революция / Dawn of the Planet of the Apes (2014) CAMRip *PROPER* | Звук с TS
  • Планета обезьян: Революция / Dawn of the Planet of the Apes скачать через торрент бесплатно
  • Планета обезьян: Революция / Dawn of the Planet of the Apes (2014) WEB-DL 720p | Звук с TS
  • Планета обезьян: Революция / Dawn of the Planet of the Apes (2014) WEB-DLRip | Звук с TS


    • Комментарии (0):

      Информация

      Информация

        Посетители, находящиеся в группе Гости, не могут оставлять комментарии в данной новости.

        ↓ Меню



        ↓ Опрос

        А Вы добавили сайт в закладки?
        Да
        Не


        Top 10 за месяц (Фильмы)