.
Авторизация | Регистрация
» » Дракула / Dracula Untold (2014) WEBRip 720p | Чистый звук скачать через торрент бесплатно




    Дракула / Dracula Untold (2014) WEBRip 720p | Чистый звук скачать через торрент бесплатно

    Опубликовал: Админ | Дата: 27-02-2015, 11:10 | Просмотров: 153


    Детально о кино
    Русское название: Дракула
    Русское название в мировом прокате: Dracula Untold
    Создали в: 2014
    Категория жанра: ужасы, фэнтези, боевик, драма, военный
    Главный режиссер: Гари Шор
    Актеры:Люк Эванс, Сара Гадон, Доминик Купер, Арт Паркинсон, Чарльз Дэнс, Дайармейд Мерта, Пол Кэй, Уильям Хьюстон, Ной Хантли, Ронан Вайберт
    Сюжет фильма:Влад Дракула был величайшим правителем, доблестным воином и страстным мужчиной. Но судьба свела его с врагом, коварство которого не знало границ. И тогда Дракула заключил сделку — нечеловеческая сила в обмен на самую малость — бессмертную душу…

    Снималось в: США/Legendary Pictures, Michael De Luca Productions, Universal Pictures
    Время просмотра: 01:31:31
    Тип перевода:Дублированное Чистый звукОфициальный
    Файл
    Тип видео: MKV (x264)
    Качество фильма: WEBRip 720p
    Информация о видео: 2520 Kb/s, 1280x720
    Информация о звуке: Russian/English: AC3, 192 kb/s (2 ch)
    Семпл


    Скриншоты для ознакомления
    MediaInfo
    General
    Unique ID : 233097412273667554207492410417147080029 (0xAF5CEDBA6A01F57A9C6A079160DCED5D)
    Complete name : /Dr4ku1a.2014.D.WEBRip.720p_.mkv
    Format : Matroska
    Format version : Version 4/Version 2
    File size : 2.54 GiB
    Duration : 1h 31mn
    Overall bit rate : 3 977 Kbps
    Encoded date : UTC 2014-11-09 22:33:58
    Writing application : mkvmerge v7.0.0 (;Where We Going;) 64bit built on Jun 9 2014 15:16:27
    Writing library : libebml v1.3.0 + libmatroska v1.4.1
    Video
    ID : 1
    Format : AVC
    Format/Info : Advanced Video Codec
    Format profile : High@L4.1
    Format settings, CABAC : Yes
    Format settings, ReFrames : 4 frames
    Codec ID : V_MPEG4/ISO/AVC
    Bit rate : 3 514 Kbps
    Nominal bit rate : 2 520 Kbps
    Width : 1 280 pixels
    Height : 720 pixels
    Display aspect ratio : 16:9
    Frame rate mode : Variable
    Original frame rate : 25.000 fps
    Color space : YUV
    Chroma subsampling : 4:2:0
    Bit depth : 8 bits
    Scan type : Progressive
    Bits/(Pixel*Frame) : 0.109
    Writing library : x264 core 130 r2274bm c832fe9
    Encoding settings : cabac=1/ref=3/deblock=1:-1:-1/analyse=0x3:0x113/me=hex/subme=7/psy=1/psy_rd=1.00:0.15/mixed_ref=1/me_range=16/chroma_me=1/trellis=1/8x8dct=1/cqm=0/deadzone=21,11/fast_pskip=1/chroma_qp_offset=-3/threads=12/lookahead_threads=2/sliced_threads=0/nr=0/decimate=1/interlaced=0/bluray_compat=0/constrained_intra=0/bframes=3/b_pyramid=2/b_adapt=1/b_bias=0/direct=1/weightb=1/open_gop=0/weightp=2/keyint=250/keyint_min=25/scenecut=40/intra_refresh=0/rc_lookahead=40/rc=abr/mbtree=1/bitrate=2520/ratetol=1.0/qcomp=0.60/qpmin=0/qpmax=69/qpstep=4/ip_ratio=1.40/aq=1:1.00
    Default : Yes
    Forced : No
    Audio #1
    ID : 2
    Format : AC-3
    Format/Info : Audio Coding 3
    Mode extension : CM (complete main)
    Format settings, Endianness : Big
    Codec ID : A_AC3
    Duration : 1h 31mn
    Bit rate mode : Constant
    Bit rate : 192 Kbps
    Channel(s) : 2 channels
    Channel positions : Front: L R
    Sampling rate : 48.0 KHz
    Bit depth : 16 bits
    Compression mode : Lossy
    Stream size : 126 MiB (5%)
    Default : Yes
    Forced : No
    Audio #2
    ID : 3
    Format : AC-3
    Format/Info : Audio Coding 3
    Mode extension : CM (complete main)
    Format settings, Endianness : Big
    Codec ID : A_AC3
    Duration : 1h 31mn
    Bit rate mode : Constant
    Bit rate : 192 Kbps
    Channel(s) : 2 channels
    Channel positions : Front: L R
    Sampling rate : 44.1 KHz
    Bit depth : 16 bits
    Compression mode : Lossy
    Stream size : 126 MiB (5%)
    Language : English
    Default : No
    Forced : No

    Размер скачиваемого торрента: 2.54 GB (2729985855 Bytes)

    Дракула/Dracula Untold (2014) WEBRip 720p | Чистый звук скачать через торрент бесплатно
    загрузка...
    Рейтинг →
     (голосов: 1, оценка 3/5, голосовать можно 1 раз )

    Другие торренты по теме:



      Комментарии (0):

      Информация

      Информация

        Посетители, находящиеся в группе Гости, не могут оставлять комментарии в данной новости.

        ↓ Меню



        ↓ Опрос

        А Вы добавили сайт в закладки?
        Да
        Не


        Top 10 за неделю (Фильмы)