.
Авторизация | Регистрация
» » Стражи Галактики / Guardians of the Galaxy (2014) DVDRip | Чистый звук скачать через торрент бесплатно




    Стражи Галактики / Guardians of the Galaxy (2014) DVDRip | Чистый звук скачать через торрент бесплатно

    Опубликовал: Админ | Дата: 27-02-2015, 11:10 | Просмотров: 167


    Детально о кино
    Русское название:Стражи Галактики
    Русское название в мировом прокате:Guardians of the Galaxy
    Создали в:2014
    Категория жанра:фантастика, боевик, приключения
    Главный режиссер:Джеймс Ганн
    Актеры:Крис Прэтт, Зои Салдана, Дэйв Батиста, Вин Дизель, Брэдли Купер, Ли Пейс, Майкл Рукер, Карен Гиллан, Джимон Хонсу, Джон Си Райли
    Сюжет фильма:
    Питер Квилл становится жертвой охотников за головами после кражи таинственной сферы, за которой охотился Ронан- могущественный злодей, полный амбиций и угрожающий целой вселенной. Чтобы одолеть Ронана, Питеру приходится объединиться с квартетом отбросов: вооружённым до зубов Ракетным енотом, древоподобным гуманоидом Грутом, смертельно опасной и загадочной Гаморой и мстительным Драксом Разрушителем. Но когда Питер обнаруживает истинную силу сферы и узнаёт насколько она опасна для космоса, он должен сделать всё возможное, чтобы сплотить всех членов команды для последнего противостояния и вернуть баланс во всей Галактике.

    Снималось в:США
    Время просмотра:02:00:46
    Перевод текста:Профессиональный (полное дублирование) | Чистый звук Официальный
    Файл
    Качество фильма:DVDRip
    Тип видео:AVI
    Информация о видео:MPEG4, XviD, 720x304 (2.35:1), 23.976 fps, 1 418 Kbps (0.270 bit/pixel)
    Информация о звуке:AC-3, 48.0 KHz, 2 ch, 192 Kbps, CBR
    Скриншоты для ознакомления


    MediaInfo
    General
    Complete name : Strag1.Galakt1ki.2014.D.DVDRip.1400Mb.avi
    Format : AVI
    Format/Info : Audio Video Interleave
    File size : 1.37 GiB
    Duration : 2h 0mn
    Overall bit rate : 1 619 Kbps
    Writing application : VirtualDubMod 1.5.10.2 (build 2540/release)
    Writing library : VirtualDubMod build 2540/release
    Video
    ID : 0
    Format : MPEG-4 Visual
    Format profile : Advanced Simple@L5
    Format settings, BVOP : 2
    Format settings, QPel : No
    Format settings, GMC : No warppoints
    Format settings, Matrix : Default (MPEG)
    Codec ID : XVID
    Codec ID/Hint : XviD
    Duration : 2h 0mn
    Bit rate : 1 418 Kbps
    Width : 720 pixels
    Height : 304 pixels
    Display aspect ratio : 2.35:1
    Frame rate : 23.976 fps
    Color space : YUV
    Chroma subsampling : 4:2:0
    Bit depth : 8 bits
    Scan type : Progressive
    Compression mode : Lossy
    Bits/(Pixel*Frame) : 0.270
    Stream size : 1.20 GiB (88%)
    Writing library : XviD 1.2.1 (UTC 2008-12-04)
    Audio
    ID : 1
    Format : AC-3
    Format/Info : Audio Coding 3
    Mode extension : CM (complete main)
    Format settings, Endianness : Big
    Codec ID : 2000
    Duration : 2h 0mn
    Bit rate mode : Constant
    Bit rate : 192 Kbps
    Channel(s) : 2 channels
    Channel positions : Front: L R
    Sampling rate : 48.0 KHz
    Bit depth : 16 bits
    Compression mode : Lossy
    Stream size : 166 MiB (12%)
    Alignment : Split accross interleaves
    Interleave, duration : 42 ms (1.00 video frame)
    Interleave, preload duration : 500 ms

    Размер скачиваемого торрента: 1.37 GB (1467582464 Bytes)

    Стражи Галактики/Guardians of the Galaxy (2014) DVDRip | Чистый звук скачать через торрент бесплатно
    загрузка...
    Рейтинг →
     (голосов: 1, оценка 3/5, голосовать можно 1 раз )

    Другие торренты по теме:

  • Стражи Галактики (2014) торрент скачать бесплатно
  • OST - Стражи Галактики / Guardians of the Galaxy (by Tyler Bates and VA) (2014) MP3 от AGR - Generalfilm скачать через торрент бесплатно
  • Стражи Галактики / Guardians of the Galaxy (2014) CAMRip торрент скачать бесплатно
  • Стражи Галактики / Guardians of the Galaxy (2014) TC | Звук с CAMRip торрент скачать бесплатно
  • Стражи Галактики / Guardians of the Galaxy (2014) TC | Звук с CAMRip торрент скачать бесплатно
  • Стражи Галактики / Guardians of the Galaxy (2014) TC | Чистый звук торрент скачать бесплатно
  • Стражи Галактики / Guardians of the Galaxy (2014) TC | Чистый звук торрент скачать бесплатно
  • Стражи Галактики / Guardians of the Galaxy (2014) TC | Чистый звук скачать через торрент бесплатно


    • Комментарии (0):

      Информация

      Информация

        Посетители, находящиеся в группе Гости, не могут оставлять комментарии в данной новости.

        ↓ Меню



        ↓ Опрос

        А Вы добавили сайт в закладки?
        Да
        Не


        Top 10 за неделю (Фильмы)