.
Авторизация | Регистрация
» » Жизнь в стиле кантри / Pure Country (1992) DVDRip скачать через торрент бесплатно




    Жизнь в стиле кантри / Pure Country (1992) DVDRip скачать через торрент бесплатно

    Опубликовал: Админ | Дата: 27-02-2015, 11:10 | Просмотров: 295


    Снималось в: США
    Создали в: Warner Bros., Jerry Weintraub Productions
    Категория жанра: Мелодрама
    Создали в: 1992
    Время просмотра: 01:52:31
    Перевод текста: Профессиональный многоголосый
    Оригинальная аудиодорожка: Английская
    Главный режиссер: Кристофер Кейн
    Актеры:Джордж Стрэйт, Лесли Энн Уоррен, Изабель Глэссир, Кайл Чандлер, Джон Доу, Рори Кэлхун, Молли МакКлюр, Джеймс Терри МакИлвейн, Тоби Миткэлф, Марк Уолтерс
    Сюжет: Дасти Чендлер — звезда кантри-музыки первой величины, но его шоу больше похожи на рок-концерты 70-х. Он понимает, что потерял свои корни. После очередной размолвки со своим менеджером он бросает все и уезжает в свой родной городок, где жизнь течет размеренно, где он вновь обретает свой собственный музыкальный стиль, а заодно находит свою настоящую любовь. Но законы шоу-бизнеса жестоки: воспользовавшись отсутствием Дасти, его место пытается занять молодой и беспринципный музыкант, готовый на все ради славы и денег. Погаснет ли звезда Дасти или засияет с новой силой, несмотря на интриги и скандал, раздутый прессой?

    Исходник:DVD5 R2
    Тип релиза:DVDRip
    Контейнер: AVI
    Информация о видео: 720x400 (1.80:1), 23.976 fps, XviD MPEG-4 ~2009 kbps avg, 0.29 bit/pixel
    Информация о звуке 1: 48 kHz, AC3 Dolby Digital, 2/0 (L,R) ch, ~192 kbps (русский)
    Информация о звуке 2: 48 kHz, AC3 Dolby Digital, 3/2 (L,C,R,l,r) + LFE ch, ~384 kbps (английский)
    MediaInfo
    Общее
    Полное имя : D:ААА2Жизнь в стиле кантри.avi
    Формат : AVI
    Формат/Информация : Audio Video Interleave
    Профиль формата : OpenDML
    Размер файла : 2,04 Гбайт
    Продолжительность : 1 ч. 52 м.
    Общий поток : 2592 Кбит/сек
    Программа кодирования : VirtualDubMod 1.5.10.2 (build 2540/release)
    Библиотека кодирования : VirtualDubMod build 2540/release
    Видео
    Идентификатор : 0
    Формат : MPEG-4 Visual
    Профиль формата : Advanced Simple@L5
    Параметр BVOP формата : 2
    Параметр QPel формата : Нет
    Параметр GMC формата : Без точки перехода
    Параметр матрицы формата : Default (MPEG)
    Режим смешивания : Сжатый битовый поток
    Идентификатор кодека : XVID
    Идентификатор кодека/Подсказка : XviD
    Продолжительность : 1 ч. 52 м.
    Битрейт : 1998 Кбит/сек
    Ширина : 720 пикселей
    Высота : 400 пикселей
    Соотношение сторон : 16:9
    Частота кадров : 23,976 кадра/сек
    Цветовое пространство : YUV
    Субдискретизация насыщенности : 4:2:0
    Битовая глубина : 8 бит
    Тип развёртки : Прогрессивная
    Метод сжатия : С потерями
    Бит/(Пиксели*Кадры) : 0.289
    Размер потока : 1,57 Гбайт (77%)
    Библиотека кодирования : XviD 1.2.1 (UTC 2008-12-04)
    Аудио #1
    Идентификатор : 1
    Формат : AC-3
    Формат/Информация : Audio Coding 3
    Расширение режима : CM (complete main)
    Параметр Endianness формата : Big
    Идентификатор кодека : 2000
    Продолжительность : 1 ч. 52 м.
    Вид битрейта : Постоянный
    Битрейт : 192 Кбит/сек
    Каналы : 2 канала
    Расположение каналов : Front: L R
    Частота : 48,0 КГц
    Битовая глубина : 16 бит
    Метод сжатия : С потерями
    Размер потока : 155 Мбайт (7%)
    Выравнивание : Разделение по промежуткам
    Продолжительность промежутка : 42 мс. (1,00 видеокадр)
    Время предзагрузки промежутка : 500 мс.
    Аудио #2
    Идентификатор : 2
    Формат : AC-3
    Формат/Информация : Audio Coding 3
    Расширение режима : CM (complete main)
    Параметр Endianness формата : Big
    Идентификатор кодека : 2000
    Продолжительность : 1 ч. 52 м.
    Вид битрейта : Постоянный
    Битрейт : 384 Кбит/сек
    Каналы : 6 каналов
    Расположение каналов : Front: L C R, Side: L R, LFE
    Частота : 48,0 КГц
    Битовая глубина : 16 бит
    Метод сжатия : С потерями
    Размер потока : 309 Мбайт (15%)
    Выравнивание : Разделение по промежуткам
    Продолжительность промежутка : 42 мс. (1,00 видеокадр)
    Время предзагрузки промежутка : 500 мс.
    Скриншоты для ознакомления

    Автор рипа:
    Залил: YArl
    Размер скачиваемого торрента: 2.04 GB (2187741184 Bytes)

    Жизнь в стиле кантри/Pure Country (1992) DVDRip скачать через торрент бесплатно
    загрузка...
    Рейтинг →
     (голосов: 1, оценка 5/5, голосовать можно 1 раз )

    Другие торренты по теме:

  • Янн Мартел - Жизнь Пи (2012) RTF торрент скачать бесплатно
  • Жизнь Пи / Life of Pi (2012) TS торрент скачать бесплатно
  • Джеки Чан: Моя жизнь / Jackie Chan: My Story (1998) DVDRip торрент скачать бесплатно
  • Тарасов Владимир - Технология жизни. Книга для героев. (2007) MP3 торрент скачать бесплатно
  • Светлое будущее / Право на жизнь 3 / A Better Tomorrow / Ying hung boon sik 3 (1989) BDRip 720p от R.G. GoldenShara торрент скачать бесплатно
  • Жизнь прекрасна (2011) DVD5 торрент скачать бесплатно
  • Жизнь прекрасна (2011) DVDRip торрент скачать бесплатно
  • Забирая жизни / Taking Lives (2004) BDRip 1080p | Режиссерская версия / Directors Cut торрент скачать бесплатно


    • Комментарии (0):

      Информация

      Информация

        Посетители, находящиеся в группе Гости, не могут оставлять комментарии в данной новости.

        ↓ Меню



        ↓ Опрос

        А Вы добавили сайт в закладки?
        Да
        Не


        Top 10 за неделю (Фильмы)