.
Авторизация | Регистрация
» » На грани / Lev staerkt (2014) SATRip от MediaClub | P скачать через торрент бесплатно




    На грани / Lev staerkt (2014) SATRip от MediaClub | P скачать через торрент бесплатно

    Опубликовал: Админ | Дата: 27-02-2015, 11:10 | Просмотров: 138


    Детально о кино
    Русское название:На грани
    Русское название в мировом прокате:Lev staerkt
    Создали в:2014
    Категория жанра:Драма
    Главный режиссер:Кристиан Е. Кристиансен
    Актеры:Сирон Бьёрн Мелвиль, Якоб Офтебро, Даника Куркик, Каспер Йеклев Фомсгаард, Йоаким Ингверсен, Джессика Бахрами Сёренсен
    Сюжет фильма:
    Ник и Мартин, лучшие друзья с детства, принимают участие в незаконных автогонках по городским улицам. Адреналин зашкаливает! Но одна ночная гонка заканчивается трагически — на огромной скорости один из друзей сбивает молодую велосипедистку. Ситуация выходит из-под контроля… Вскоре им обоим придется столкнуться с последствиями собственной лжи. Каждое последующее действие ведет за собой череду все больших ошибок…

    Снималось в:Дания, Швеция
    Киностудия:Film i V?st, M2Film, Zentropa Productions
    Время просмотра:01:22:17
    Перевод текста:Профессиональный многоголосый
    Файл
    Кодек для видео:XviD
    Качество фильма:SATRip
    Информация о видео:1976 Кбит/с, 720x304, 25.000 кадр/с
    Информация о звуке:Русский (АС3, 6 ch, 384 Кбит/с)
    Семпл
    Скриншоты для ознакомления

    MI
    Общее
    Полное имя : Na.grani.2014.SATRip.MediaClub.avi
    Формат : AVI
    Формат/Информация : Audio Video Interleave
    Размер файла : 1,36 Гбайт
    Продолжительность : 1 ч. 22 м.
    Общий поток : 2369 Кбит/сек
    Название фильма : MediaClub
    Программа кодирования : VirtualDubMod 1.5.10.2 (build 2540/release)
    Библиотека кодирования : VirtualDubMod build 2540/release
    Видео
    Идентификатор : 0
    Формат : MPEG-4 Visual
    Профиль формата : Advanced Simple@L5
    Параметр BVOP формата : 2
    Параметр QPel формата : Нет
    Параметр GMC формата : Без точки перехода
    Параметр матрицы формата : Default (MPEG)
    Идентификатор кодека : XVID
    Идентификатор кодека/Подсказка : XviD
    Продолжительность : 1 ч. 22 м.
    Битрейт : 1976 Кбит/сек
    Ширина : 720 пикселей
    Высота : 304 пикселя
    Соотношение сторон : 2,35:1
    Частота кадров : 25,000 кадров/сек
    Цветовое пространство : YUV
    Субдискретизация насыщенности : 4:2:0
    Битовая глубина : 8 бит
    Тип развёртки : Прогрессивная
    Метод сжатия : С потерями
    Бит/(Пиксели*Кадры) : 0.361
    Размер потока : 1,14 Гбайт (83%)
    Библиотека кодирования : XviD 65
    Аудио
    Идентификатор : 1
    Формат : AC-3
    Формат/Информация : Audio Coding 3
    Расширение режима : CM (complete main)
    Параметр Endianness формата : Big
    Идентификатор кодека : 2000
    Продолжительность : 1 ч. 22 м.
    Вид битрейта : Постоянный
    Битрейт : 384 Кбит/сек
    Каналы : 6 каналов
    Расположение каналов : Front: L C R, Side: L R, LFE
    Частота : 48,0 КГц
    Битовая глубина : 16 бит
    Метод сжатия : С потерями
    Размер потока : 226 Мбайт (16%)
    Выравнивание : Разделение по промежуткам
    Продолжительность промежутка : 40 мс. (1,00 видеокадр)
    Время предзагрузки промежутка : 500 мс.

    Релиз подготовил:
    Залил: poja
    Размер скачиваемого торрента: 1.36 GB (1462249472 Bytes)

    На грани/Lev staerkt (2014) SATRip от MediaClub | P скачать через торрент бесплатно
    загрузка...
    Рейтинг →
     (голосов: 1, оценка 4/5, голосовать можно 1 раз )

    Другие торренты по теме:



      Комментарии (0):

      Информация

      Информация

        Посетители, находящиеся в группе Гости, не могут оставлять комментарии в данной новости.

        ↓ Меню



        ↓ Опрос

        А Вы добавили сайт в закладки?
        Да
        Не


        Top 10 за неделю (Фильмы)