.
Авторизация | Регистрация
» » Стражи Галактики / Guardians of the Galaxy (2014) BDRip 1080p | IMAX | iTunes скачать через торрент бесплатно




    Стражи Галактики / Guardians of the Galaxy (2014) BDRip 1080p | IMAX | iTunes скачать через торрент бесплатно

    Опубликовал: Админ | Дата: 27-02-2015, 11:10 | Просмотров: 158




    Русское название:Стражи Галактики
    Русское название в мировом прокате:Guardians of the Galaxy
    Создали в:2014
    Категория жанра:Фантастика, боевик, приключения
    Снималось в:США, Marvel Enterprises, Marvel Studios, Moving Picture Company
    Время просмотра:02:00:51
    Перевод текста:Дублированный(iTunes Россия)
    Субтитры:русский, английский

    Главный режиссер:Джеймс Ганн

    В ролях:
    Крис Прэтт, Зои Салдана, Дэйв Батиста, Вин Дизель, Брэдли Купер, Ли Пейс, Майкл Рукер, Карен Гиллан, Джимон Хонсу, Джон С. Райлли

    Сюжет фильма:
    Питер Квилл становится жертвой охотников за головами после кражи таинственной сферы, за которой охотился Ронан- могущественный злодей, полный амбиций и угрожающий целой вселенной. Чтобы одолеть Ронана, Питеру приходится объединиться с квартетом отбросов: вооружённым до зубов Ракетным енотом, древоподобным гуманоидом Грутом, смертельно опасной и загадочной Гаморой и мстительным Драксом Разрушителем. Но когда Питер обнаруживает истинную силу сферы и узнаёт насколько она опасна для космоса, он должен сделать всё возможное, чтобы сплотить всех членов команды для последнего противостояния и вернуть баланс во всей Галактике.



    Качество фильма:BDRip 1080p
    Информация о видео:1920x1080 (2,40:1), 23,976 fps, ~ 10000 kbps
    Информация о звуке 1:48 kHz, AC3 Dolby Digital, 3/2 (L,C,R,l,r) ch, ~384 kbps avg (Русский)/Дубляж
    Информация о звуке 2:48 kHz, DTS, 3/2 (L,C,R,l,r) + LFE ch, ~1509 kbps avg (Оригинал)/(Английский)
    Сэмпл
    MediaInfo:
    Формат : Matroska
    Версия формата : Version 4/Version 2
    Размер файла : 10,0 Гбайт
    Продолжительность : 2 ч. 0 м.
    Общий поток : 11,9 Мбит/сек
    Название фильма : Стражи.Галактики_Guardians.of.the.Galaxy.2014.BDRip.1080p.IMAX
    Дата кодирования : UTC 2010-02-22 21:41:31
    Программа кодирования : mkvmerge v5.8.0 (;No Sleep/Pillow;) built on Nov 13 2012 19:43:22
    Библиотека кодирования : libebml v1.3.0 + libmatroska v1.4.0
    Видео
    Идентификатор : 1
    Формат : AVC
    Формат/Информация : Advanced Video Codec
    Профиль формата : High@L4.1
    Параметр CABAC формата : Да
    Параметр ReFrames формата : 4 кадра
    Идентификатор кодека : V_MPEG4/ISO/AVC
    Продолжительность : 2 ч. 0 м.
    Битрейт : 10000 Кбит/сек
    Ширина : 1920 пикселей
    Высота : 1080 пикселей
    Соотношение сторон : 16:9
    Режим частоты кадров : Постоянный
    Частота кадров : 23,976 кадра/сек
    Цветовое пространство : YUV
    Субдискретизация насыщенности : 4:2:0
    Битовая глубина : 8 бит
    Тип развёртки : Прогрессивная
    Бит/(Пиксели*Кадры) : 0.201
    Размер потока : 8,24 Гбайт (82%)
    Заголовок : Стражи.Галактики_Guardians.of.the.Galaxy.2014.BDRip.1080p.IMAX
    Библиотека кодирования : x264 core 142 r2431 ac76440
    Настройки программы : cabac=1/ref=4/deblock=1:-3:-3/analyse=0x3:0x113/me=umh/subme=10/psy=1/psy_rd=1.00:0.05/mixed_ref=1/me_range=32/chroma_me=1/trellis=2/8x8dct=1/cqm=0/deadzone=21,11/fast_pskip=0/chroma_qp_offset=-2/threads=18/lookahead_threads=1/sliced_threads=0/nr=0/decimate=1/interlaced=0/bluray_compat=0/constrained_intra=0/bframes=4/b_pyramid=2/b_adapt=2/b_bias=0/direct=3/weightb=1/open_gop=0/weightp=2/keyint=250/keyint_min=23/scenecut=40/intra_refresh=0/rc=2pass/mbtree=0/bitrate=10000/ratetol=1.0/qcomp=0.70/qpmin=0/qpmax=69/qpstep=4/cplxblur=20.0/qblur=0.5/ip_ratio=1.40/pb_ratio=1.30/aq=2:1.00
    Язык : English
    Default : Да
    Forced : Нет
    Аудио #1
    Идентификатор : 2
    Формат : AC-3
    Формат/Информация : Audio Coding 3
    Расширение режима : CM (complete main)
    Параметр Endianness формата : Big
    Идентификатор кодека : A_AC3
    Продолжительность : 2 ч. 0 м.
    Вид битрейта : Постоянный
    Битрейт : 384 Кбит/сек
    Каналы : 6 каналов
    Расположение каналов : Front: L C R, Side: L R, LFE
    Частота : 48,0 КГц
    Битовая глубина : 16 бит
    Метод сжатия : С потерями
    Размер потока : 332 Мбайт (3%)
    Заголовок : Дублированный (iTunes Россия)
    Язык : Russian
    Default : Да
    Forced : Нет
    Аудио #2
    Идентификатор : 3
    Формат : DTS
    Формат/Информация : Digital Theater Systems
    Режим : 16
    Параметр Endianness формата : Big
    Идентификатор кодека : A_DTS
    Продолжительность : 2 ч. 0 м.
    Вид битрейта : Постоянный
    Битрейт : 1509 Кбит/сек
    Каналы : 6 каналов
    Расположение каналов : Front: L C R, Side: L R, LFE
    Частота : 48,0 КГц
    Битовая глубина : 24 бит
    Метод сжатия : С потерями
    Размер потока : 1,27 Гбайт (13%)
    Заголовок : dts-core 1509k eng
    Язык : English
    Default : Нет
    Forced : Нет
    Текст #1
    Идентификатор : 4
    Формат : UTF-8
    Идентификатор кодека : S_TEXT/UTF8
    Идентификатор кодека/Информация : UTF-8 Plain Text
    Заголовок : (iTunes Россия)
    Язык : Russian
    Default : Нет
    Forced : Нет
    Текст #2
    Идентификатор : 5
    Формат : UTF-8
    Идентификатор кодека : S_TEXT/UTF8
    Идентификатор кодека/Информация : UTF-8 Plain Text
    Язык : English
    Default : Нет
    Forced : Нет
    Меню
    00:00:00.000 : en:00:00:00.000
    00:04:05.704 : en:00:04:05.704
    00:11:21.806 : en:00:11:21.806
    00:15:21.712 : en:00:15:21.712
    00:20:54.420 : en:00:20:54.420
    00:27:11.213 : en:00:27:11.213
    00:33:58.828 : en:00:33:58.828
    00:44:28.291 : en:00:44:28.291
    00:50:53.008 : en:00:50:53.008
    00:55:17.564 : en:00:55:17.564
    00:59:45.207 : en:00:59:45.207
    01:06:06.921 : en:01:06:06.921
    01:14:46.023 : en:01:14:46.023
    01:22:20.644 : en:01:22:20.644
    01:26:29.726 : en:01:26:29.726
    01:30:23.877 : en:01:30:23.877
    01:35:58.378 : en:01:35:58.378
    01:40:46.749 : en:01:40:46.749
    01:47:35.366 : en:01:47:35.366
    01:53:16.623 : en:01:53:16.623
    02:00:10.829 : en:02:00:10.829
    Скриншоты для ознакомления





    Размер скачиваемого торрента: 10.04 GB (10780668841 Bytes)

    Стражи Галактики/Guardians of the Galaxy (2014) BDRip 1080p | IMAX | iTunes скачать через торрент бесплатно
    загрузка...
    Рейтинг →
     (голосов: 1, оценка 4/5, голосовать можно 1 раз )

    Другие торренты по теме:

  • Стражи Галактики (2014) торрент скачать бесплатно
  • OST - Стражи Галактики / Guardians of the Galaxy (by Tyler Bates and VA) (2014) MP3 от AGR - Generalfilm скачать через торрент бесплатно
  • Стражи Галактики / Guardians of the Galaxy (2014) CAMRip торрент скачать бесплатно
  • Стражи Галактики / Guardians of the Galaxy (2014) TC | Звук с CAMRip торрент скачать бесплатно
  • Стражи Галактики / Guardians of the Galaxy (2014) TC | Звук с CAMRip торрент скачать бесплатно
  • Стражи Галактики / Guardians of the Galaxy (2014) TC | Чистый звук торрент скачать бесплатно
  • Стражи Галактики / Guardians of the Galaxy (2014) TC | Чистый звук торрент скачать бесплатно
  • Стражи Галактики / Guardians of the Galaxy (2014) TC | Чистый звук скачать через торрент бесплатно


    • Комментарии (0):

      Информация

      Информация

        Посетители, находящиеся в группе Гости, не могут оставлять комментарии в данной новости.

        ↓ Меню



        ↓ Опрос

        А Вы добавили сайт в закладки?
        Да
        Не


        Top 10 за неделю (Фильмы)