.
Авторизация | Регистрация
» » Стражи Галактики / Guardians of the Galaxy (2014) HDRip от ExKinoRay | Лицензия скачать через торрент бесплатно




    Стражи Галактики / Guardians of the Galaxy (2014) HDRip от ExKinoRay | Лицензия скачать через торрент бесплатно

    Опубликовал: Админ | Дата: 27-02-2015, 11:10 | Просмотров: 124


    Детально о кино
    Русское название:Стражи Галактики
    Русское название в мировом прокате:Guardians of the Galaxy
    Создали в:2014
    Категория жанра:фантастика, боевик, приключения
    Главный режиссер:Джеймс Ганн
    Актеры:Крис Прэтт, Зои Салдана, Дэйв Батиста, Вин Дизель, Брэдли Купер, Ли Пейс, Майкл Рукер, Карен Гиллан, Джимон Хонсу, Джон Си Райли
    Сюжет фильма:Питер Квилл становится жертвой охотников за головами после кражи таинственной сферы, за которой охотился Ронан- могущественный злодей, полный амбиций и угрожающий целой вселенной. Чтобы одолеть Ронана, Питеру приходится объединиться с квартетом отбросов: вооружённым до зубов Ракетным енотом, древоподобным гуманоидом Грутом, смертельно опасной и загадочной Гаморой и мстительным Драксом Разрушителем. Но когда Питер обнаруживает истинную силу сферы и узнаёт насколько она опасна для космоса, он должен сделать всё возможное, чтобы сплотить всех членов команды для последнего противостояния и вернуть баланс во всей Галактике.

    Снималось в:США/Marvel Enterprises, Marvel Studios, Moving Picture Company
    Время просмотра:02:00:46
    Тип перевода:Дублированный
    Файл
    Кодек для видео:XviD
    Качество фильма:HDRip
    Информация о видео:656x272 (2,40:1), 23,976 fps, XviD 73 ~752 kbps avg, 0.176 bit/pixel
    Информация о звуке :48.0 kHz, MPEG Audio 3, 2 ch, 128 Kbps
    MI
    Общее
    Полное имя : D:ВидеоStragi ga1aktiki.2014. HDRip by Vovan366(ExKinoRay).avi
    Формат : AVI
    Формат/Информация : Audio Video Interleave
    Размер файла : 765 Мбайт
    Продолжительность : 2 ч. 0 м.
    Режим общего битрейта : Переменный
    Общий поток : 877 Кбит/сек
    Программа кодирования : VirtualDubMod 1.5.10.3 | www.virtualdub-fr.org || (build 2550/release)
    Библиотека кодирования : VirtualDubMod build 2550/release
    Видео
    Идентификатор : 0
    Формат : MPEG-4 Visual
    Профиль формата : Advanced Simple@L5
    Параметр BVOP формата : 2
    Параметр QPel формата : Нет
    Параметр GMC формата : Без точки перехода
    Параметр матрицы формата : Выборочная
    Идентификатор кодека : XVID
    Идентификатор кодека/Подсказка : XviD
    Продолжительность : 2 ч. 0 м.
    Битрейт : 752 Кбит/сек
    Ширина : 656 пикселей
    Высота : 272 пикселя
    Соотношение сторон : 2,40:1
    Частота кадров : 23,976 кадра/сек
    Цветовое пространство : YUV
    Субдискретизация насыщенности : 4:2:0
    Битовая глубина : 8 бит
    Тип развёртки : Прогрессивная
    Метод сжатия : С потерями
    Бит/(Пиксели*Кадры) : 0.176
    Размер потока : 650 Мбайт (86%)
    Библиотека кодирования : XviD 73
    Аудио
    Идентификатор : 1
    Формат : MPEG Audio
    Версия формата : Version 1
    Профиль формата : Layer 3
    Режим : Joint stereo
    Расширение режима : MS Stereo
    Идентификатор кодека : 55
    Идентификатор кодека/Подсказка : MP3
    Продолжительность : 2 ч. 0 м.
    Вид битрейта : Переменный
    Битрейт : 113 Кбит/сек
    Номинальный битрейт : 128 Кбит/сек
    Каналы : 2 канала
    Частота : 48,0 КГц
    Метод сжатия : С потерями
    Размер потока : 97,5 Мбайт (13%)
    Выравнивание : Соединение по промежуткам
    Продолжительность промежутка : 24 мс. (0,58 видеокадр)
    Время предзагрузки промежутка : 163 мс.
    Библиотека кодирования : LAME3.99r
    Залил: Wazzzup RK
    Размер скачиваемого торрента: 765.44 MB (802619392 Bytes)


    Стражи Галактики/Guardians of the Galaxy (2014) HDRip от ExKinoRay | Лицензия скачать через торрент бесплатно
    загрузка...
    Рейтинг →
     (голосов: 1, оценка 5/5, голосовать можно 1 раз )

    Другие торренты по теме:

  • Стражи Галактики (2014) торрент скачать бесплатно
  • OST - Стражи Галактики / Guardians of the Galaxy (by Tyler Bates and VA) (2014) MP3 от AGR - Generalfilm скачать через торрент бесплатно
  • Стражи Галактики / Guardians of the Galaxy (2014) CAMRip торрент скачать бесплатно
  • Стражи Галактики / Guardians of the Galaxy (2014) TC | Звук с CAMRip торрент скачать бесплатно
  • Стражи Галактики / Guardians of the Galaxy (2014) TC | Звук с CAMRip торрент скачать бесплатно
  • Стражи Галактики / Guardians of the Galaxy (2014) TC | Чистый звук торрент скачать бесплатно
  • Стражи Галактики / Guardians of the Galaxy (2014) TC | Чистый звук торрент скачать бесплатно
  • Стражи Галактики / Guardians of the Galaxy (2014) TC | Чистый звук скачать через торрент бесплатно


    • Комментарии (0):

      Информация

      Информация

        Посетители, находящиеся в группе Гости, не могут оставлять комментарии в данной новости.

        ↓ Меню



        ↓ Опрос

        А Вы добавили сайт в закладки?
        Да
        Не


        Top 10 за неделю (Фильмы)