.
Авторизация | Регистрация
Хочешь лучшие торренты? Добавь свой email!
Добавить
» » Команчерос / The Comancheros (1961) BDRip 720p | 50th Anniversary Edition скачать через торрент бесплатно




    Команчерос / The Comancheros (1961) BDRip 720p | 50th Anniversary Edition скачать через торрент бесплатно

    Опубликовал: Админ | Дата: 27-02-2015, 11:10 | Просмотров: 168

    Команчерос/The Comancheros (1961) BDRip 50th Anniversary Edition
    Создали в:1961
    Создали в:USA/Twentieth Century Fox Film Corporation
    Категория жанра:боевик, мелодрама, приключения, вестерн
    Главный режиссер:Майкл Кёртиц, Джон Уэйн
    Актеры:Джон Уэйн, Стюарт Уитман, Ина Балин, Нехемия Персофф, Ли Марвин, Майкл Ансара, Патрик Уэйн, Брюс Кэбот, Джоан О’Брайэн, Джек Илэм
    Сюжет фильма:Поймав обвиняемого в убийстве авантюриста Пола Регрета, техасский рейнджер Каттер и не подозревал, что вскоре ему придётся объединиться с арестованным, чтобы обезвредить банду Команчерос, занимающуюся контрабандой оружия...
    Перевод текста:профессиональный (многоголосый закадровый), авторский (одноголосый закадровый)
    Вид субтитров:вшитые отключаемые
    Язык субтитров:русские, английские

    Время просмотра:01:47:23
    Качество фильма:BDRip (720p)
    Информация о видео:MPEG-4 AVC/H.264, 1280 x 544 (2,35:1), 13 000 kbps, 23.976 fps, 0.779 b/px
    Информация о звуке # 1:АС3, 4 ch, 448 kbps, 48 000 Hz многоголосый закадровый (20 Век Фокс СНГ)
    Информация о звуке # 2:АС3, 2 ch, 192 kbps, 48 000 Hz многоголосый закадровый (Петербург - 5 канал)
    Информация о звуке # 3:АС3, 2 ch, 192 kbps, 48 000 Hz одноголосый закадровый (Ю.Медведев)
    Информация о звуке # 4:DTS, 6 ch, 1509 kbps, 48 000 Hz оригинальный
    MediaInfo
    Общее
    Уникальный идентификатор : 223472890682762723910180520842652447858 (0xA81F502D61BB76008CC6B6868A327472)
    Полное имя : E:Video1961 Команчерос 50th Anniversary Edition BDRip 720p.mkv
    Формат : Matroska
    Версия формата : Version 4/Version 2
    Размер файла : 11,7 Гбайт
    Продолжительность : 1 ч. 47 м.
    Общий поток : 15,7 Мбит/сек
    Название фильма : Команчерос/The Comancheros 50th Anniversary Edition (1961) BDRip 720p
    Дата кодирования : UTC 2014-11-21 14:37:33
    Программа кодирования : mkvmerge v7.2.0 (;On Every Street;) 32bit built on Sep 13 2014 15:42:11
    Библиотека кодирования : libebml v1.3.0 + libmatroska v1.4.1
    DURATION : 01:46:41.394000000
    NUMBER_OF_FRAMES : 1331
    NUMBER_OF_BYTES : 52173
    _STATISTICS_WRITING_APP : mkvmerge v7.2.0 (;On Every Street;) 32bit built on Sep 13 2014 15:42:11
    _STATISTICS_WRITING_DATE_UTC : 2014-11-21 14:37:33
    _STATISTICS_TAGS : BPS DURATION NUMBER_OF_FRAMES NUMBER_OF_BYTES
    Видео
    Идентификатор : 1
    Формат : AVC
    Формат/Информация : Advanced Video Codec
    Профиль формата : High@L4.1
    Параметр CABAC формата : Да
    Параметр ReFrames формата : 12 кадров
    Идентификатор кодека : V_MPEG4/ISO/AVC
    Продолжительность : 1 ч. 47 м.
    Битрейт : 13,0 Мбит/сек
    Ширина : 1280 пикселей
    Высота : 544 пикселя
    Соотношение сторон : 2,35:1
    Режим частоты кадров : Постоянный
    Частота кадров : 23,976 кадра/сек
    Цветовое пространство : YUV
    Субдискретизация насыщенности : 4:2:0
    Битовая глубина : 8 бит
    Тип развёртки : Прогрессивная
    Бит/(Пиксели*Кадры) : 0.779
    Размер потока : 9,76 Гбайт (83%)
    Заголовок : 1961 Команчерос/The Comancheros 50th Anniversary Edition BDRip 720p
    Библиотека кодирования : x264 core 115 r1947+532 361db68
    Настройки программы : cabac=1/ref=12/deblock=1:-3:-3/analyse=0x3:0x133/me=umh/subme=10/psy=1/fade_compensate=0.00/psy_rd=1.15:0.05/mixed_ref=1/me_range=24/chroma_me=1/trellis=2/8x8dct=1/cqm=0/deadzone=21,11/fast_pskip=1/chroma_qp_offset=-3/threads=12/sliced_threads=0/nr=0/decimate=1/interlaced=0/bluray_compat=0/constrained_intra=0/fgo=0/bframes=12/b_pyramid=2/b_adapt=2/b_bias=0/direct=3/weightb=1/open_gop=0/weightp=2/keyint=250/keyint_min=23/scenecut=40/intra_refresh=0/rc_lookahead=60/rc=crf/mbtree=1/crf=16.0/qcomp=0.60/qpmin=0/qpmax=69/qpstep=4/vbv_maxrate=50000/vbv_bufsize=50000/crf_max=0.0/nal_hrd=none/ip_ratio=1.40/aq=1:0.80
    Язык : English
    Default : Да
    Forced : Нет
    DURATION : 01:47:23.896000000
    NUMBER_OF_FRAMES : 154499
    NUMBER_OF_BYTES : 10723797820
    _STATISTICS_WRITING_APP : mkvmerge v7.2.0 (;On Every Street;) 32bit built on Sep 13 2014 15:42:11
    _STATISTICS_WRITING_DATE_UTC : 2014-11-21 14:37:33
    _STATISTICS_TAGS : BPS DURATION NUMBER_OF_FRAMES NUMBER_OF_BYTES
    Аудио #1
    Идентификатор : 2
    Формат : AC-3
    Формат/Информация : Audio Coding 3
    Расширение режима : CM (complete main)
    Параметр Endianness формата : Big
    Идентификатор кодека : A_AC3
    Продолжительность : 1 ч. 47 м.
    Вид битрейта : Постоянный
    Битрейт : 448 Кбит/сек
    Каналы : 4 канала
    Расположение каналов : Front: L C R, Back: C
    Частота : 48,0 КГц
    Битовая глубина : 16 бит
    Метод сжатия : С потерями
    Размер потока : 344 Мбайт (3%)
    Заголовок : Многоголосый закадровый (20 Век Фокс СНГ)
    Язык : Russian
    Default : Да
    Forced : Нет
    Аудио #2
    Идентификатор : 3
    Формат : AC-3
    Формат/Информация : Audio Coding 3
    Расширение режима : CM (complete main)
    Параметр Endianness формата : Big
    Идентификатор кодека : A_AC3
    Продолжительность : 1 ч. 47 м.
    Вид битрейта : Постоянный
    Битрейт : 192 Кбит/сек
    Каналы : 2 канала
    Расположение каналов : Front: L R
    Частота : 48,0 КГц
    Битовая глубина : 16 бит
    Метод сжатия : С потерями
    Размер потока : 147 Мбайт (1%)
    Заголовок : Многоголосый закадровый (Петербург - 5 канал)
    Язык : Russian
    Default : Нет
    Forced : Нет
    Аудио #3
    Идентификатор : 4
    Формат : AC-3
    Формат/Информация : Audio Coding 3
    Расширение режима : CM (complete main)
    Параметр Endianness формата : Big
    Идентификатор кодека : A_AC3
    Продолжительность : 1 ч. 47 м.
    Вид битрейта : Постоянный
    Битрейт : 192 Кбит/сек
    Каналы : 2 канала
    Расположение каналов : Front: L R
    Частота : 48,0 КГц
    Битовая глубина : 16 бит
    Метод сжатия : С потерями
    Размер потока : 147 Мбайт (1%)
    Заголовок : Одноголосый закадровый (Ю.Медведев)
    Язык : Russian
    Default : Нет
    Forced : Нет
    Аудио #4
    Идентификатор : 5
    Формат : DTS
    Формат/Информация : Digital Theater Systems
    Режим : 16
    Параметр Endianness формата : Big
    Идентификатор кодека : A_DTS
    Продолжительность : 1 ч. 47 м.
    Вид битрейта : Постоянный
    Битрейт : 1509 Кбит/сек
    Каналы : 6 каналов
    Расположение каналов : Front: L C R, Side: L R, LFE
    Частота : 48,0 КГц
    Битовая глубина : 24 бит
    Метод сжатия : С потерями
    Задержка видео : 11 мс.
    Размер потока : 1,13 Гбайт (10%)
    Заголовок : Оригинальный
    Язык : English
    Default : Нет
    Forced : Нет
    Текст #1
    Идентификатор : 6
    Формат : UTF-8
    Идентификатор кодека : S_TEXT/UTF8
    Идентификатор кодека/Информация : UTF-8 Plain Text
    Заголовок : Russian
    Язык : Russian
    Default : Нет
    Forced : Нет
    Текст #2
    Идентификатор : 7
    Формат : UTF-8
    Идентификатор кодека : S_TEXT/UTF8
    Идентификатор кодека/Информация : UTF-8 Plain Text
    Заголовок : English
    Язык : English
    Default : Нет
    Forced : Нет
    Меню
    00:00:00.000 : en:00:00:00.000
    00:02:30.275 : en:00:02:30.275
    00:04:07.705 : en:00:04:07.705
    00:13:40.485 : en:00:13:40.485
    00:19:46.684 : en:00:19:46.684
    00:24:51.071 : en:00:24:51.071
    00:32:45.421 : en:00:32:45.421
    00:37:45.721 : en:00:37:45.721
    00:46:26.784 : en:00:46:26.784
    00:53:14.398 : en:00:53:14.398
    01:00:35.130 : en:01:00:35.130
    01:07:50.356 : en:01:07:50.356
    01:15:18.514 : en:01:15:18.514
    01:23:49.024 : en:01:23:49.024
    01:30:52.529 : en:01:30:52.529
    01:40:02.203 : en:01:40:02.203
    01:47:23.686 : en:01:47:23.686
    Скриншоты для ознакомления

    Размер скачиваемого торрента: 11.75 GB (12612371410 Bytes)

    Команчерос/The Comancheros (1961) BDRip 720p | 50th Anniversary Edition скачать через торрент бесплатно
    загрузка...
    Рейтинг →
     (голосов: 1, оценка 5/5, голосовать можно 1 раз )

    Другие торренты по теме:



      Комментарии (0):

      Информация

      Информация

        Посетители, находящиеся в группе Гости, не могут оставлять комментарии в данной новости.

        ↓ Меню



        ↓ Опрос

        А Вы добавили сайт в закладки?
        Да
        Не


        Top 10 за месяц (Фильмы)