.
Авторизация | Регистрация
Хочешь лучшие торренты? Добавь свой email!
Добавить
» » И сказал Господь Каину / E Dio disse a Caino (1970) DVDRip скачать через торрент бесплатно




    И сказал Господь Каину / E Dio disse a Caino (1970) DVDRip скачать через торрент бесплатно

    Опубликовал: Админ | Дата: 27-02-2015, 11:10 | Просмотров: 192


    Снималось в: США
    Создали в: Angry Monkey Entertainment
    Категория жанра: Вестерн
    Создали в: 1970
    Время просмотра: 01:36:01
    Перевод текста: Любительский одноголосый (den904)
    Оригинальная аудиодорожка: Немецкая
    Главный режиссер: Антонио Маргерити
    Актеры:Клаус Кински, Петер Карстен, Марчелла Микеланджели, Гуидо Лоллобриджида, Антонио Кантафора, Джулиано Раффаелли, Лучано Пигоцци, Лучио Де Сантис, Мария Луиза Сала, Хоакин Бланко

    Сюжет: Гарри Хэмилтон, армейский офицер, несправедливо обвинён в грабеже и посажен за решётку. Десять лет спустя он возвращается в родной город, чтобы призвать лжесвидетеля к ответу, и обнаруживает, что за эти годы тот стал весьма влиятельным человеком.
    Исходник:DVD9 R2
    Тип релиза:DVDRip
    Контейнер: AVI
    Информация о видео: 704x368 (1.91:1), 23.976 fps, XviD MPEG-4 ~1871 kbps avg, 0.30 bit/pixel
    Информация о звуке 1: 48 kHz, AC3 Dolby Digital, 2/0 (L,R) ch, ~96 kbps (русский)
    Информация о звуке 2: 48 kHz, AC3 Dolby Digital, 2/0 (L,R) ch, ~192 kbps(немецкий)
    MediaInfo
    Общее
    Полное имя : D:ААА2И сказал Господь Каину.avi
    Формат : AVI
    Формат/Информация : Audio Video Interleave
    Размер файла : 1,46 Гбайт
    Продолжительность : 1 ч. 36 м.
    Общий поток : 2174 Кбит/сек
    Программа кодирования : VirtualDubMod 1.5.10.2 (build 2540/release)
    Библиотека кодирования : VirtualDubMod build 2540/release
    Видео
    Идентификатор : 0
    Формат : MPEG-4 Visual
    Профиль формата : Advanced Simple@L5
    Параметр BVOP формата : 2
    Параметр QPel формата : Нет
    Параметр GMC формата : Без точки перехода
    Параметр матрицы формата : Default (MPEG)
    Режим смешивания : Сжатый битовый поток
    Идентификатор кодека : XVID
    Идентификатор кодека/Подсказка : XviD
    Продолжительность : 1 ч. 36 м.
    Битрейт : 1872 Кбит/сек
    Ширина : 704 пикселя
    Высота : 368 пикселей
    Соотношение сторон : 1,913
    Частота кадров : 23,976 кадра/сек
    Цветовое пространство : YUV
    Субдискретизация насыщенности : 4:2:0
    Битовая глубина : 8 бит
    Тип развёртки : Прогрессивная
    Метод сжатия : С потерями
    Бит/(Пиксели*Кадры) : 0.301
    Размер потока : 1,26 Гбайт (86%)
    Библиотека кодирования : XviD 1.2.1 (UTC 2008-12-04)
    Аудио #1
    Идентификатор : 1
    Формат : AC-3
    Формат/Информация : Audio Coding 3
    Расширение режима : CM (complete main)
    Параметр Endianness формата : Big
    Идентификатор кодека : 2000
    Продолжительность : 1 ч. 36 м.
    Вид битрейта : Постоянный
    Битрейт : 96,0 Кбит/сек
    Каналы : 2 канала
    Расположение каналов : Front: L R
    Частота : 48,0 КГц
    Битовая глубина : 16 бит
    Метод сжатия : С потерями
    Размер потока : 65,9 Мбайт (4%)
    Выравнивание : Разделение по промежуткам
    Продолжительность промежутка : 42 мс. (1,00 видеокадр)
    Время предзагрузки промежутка : 500 мс.
    Аудио #2
    Идентификатор : 2
    Формат : AC-3
    Формат/Информация : Audio Coding 3
    Расширение режима : CM (complete main)
    Параметр Endianness формата : Big
    Идентификатор кодека : 2000
    Продолжительность : 1 ч. 36 м.
    Вид битрейта : Постоянный
    Битрейт : 192 Кбит/сек
    Каналы : 2 канала
    Расположение каналов : Front: L R
    Частота : 48,0 КГц
    Битовая глубина : 16 бит
    Метод сжатия : С потерями
    Размер потока : 132 Мбайт (9%)
    Выравнивание : Разделение по промежуткам
    Продолжительность промежутка : 42 мс. (1,00 видеокадр)
    Время предзагрузки промежутка : 500 мс.
    Скриншоты для ознакомления

    Автор рипа:
    Залил: YArl
    Размер скачиваемого торрента: 1.46 GB (1565601792 Bytes)

    И сказал Господь Каину/E Dio disse a Caino (1970) DVDRip скачать через торрент бесплатно
    загрузка...
    Рейтинг →
     (голосов: 1, оценка 3/5, голосовать можно 1 раз )

    Другие торренты по теме:

  • Александр Балу Балунов - Король и Шут. Между Купчино и Ржевкой… (2016) FB2
  • Любовь и секс на Ибице / Verliefd op Ibiza (2013) HDRip-AVC от ImperiaFilm | P
  • Светлое будущее 3: Любовь и смерть в Сайгоне / A Better Tomorrow 3 (1989) HDRip от Scarabey | Р
  • Пуччини и девушка / Puccini e la fanciulla (2008) DVDRip-AVC | P
  • Коко Шанель и Игорь Стравинский / Coco Chanel Igor Stravinsky (2009) BDRip от HQCLUB
  • Агенты Щ.И.Т. / Marvels Agents of S.H.I.E.L.D. (2013-2017) HDRip, WEB-DLRip от Generalfilm | КПК | Невафильм
  • 140 ударов в минуту - Новое и лучшее (2017) MP3
  • OST - Соль и перец / Salt and Pepper (1968) FLAC


    • Комментарии (0):

      Информация

      Информация

        Посетители, находящиеся в группе Гости, не могут оставлять комментарии в данной новости.

        ↓ Меню



        ↓ Опрос

        А Вы добавили сайт в закладки?
        Да
        Не


        Top 10 за месяц (Фильмы)