.
Авторизация | Регистрация
» » Неудержимые 3 / The Expendables 3 (2014) BDRemux 1080p от ExKinoRay | Лицензия, P, A скачать через торрент бесплатно




    Неудержимые 3 / The Expendables 3 (2014) BDRemux 1080p от ExKinoRay | Лицензия, P, A скачать через торрент бесплатно

    Опубликовал: Админ | Дата: 27-02-2015, 11:10 | Просмотров: 172


    Русское название:Неудержимые 3
    Русское название в мировом прокате:The Expendables 3
    Создали в:2014
    Категория жанра:Боевик, триллер, приключения
    Снималось в:США, Davis-Films, Ex3 Productions, Millennium Films, Nu Image/Millennium Films, Nu-Image Films
    Главный режиссер:Патрик Хьюз
    Актеры:Сильвестр Сталлоне, Джейсон Стэйтем, Джет Ли, Антонио Бандерас, Уэсли Снайпс, Дольф Лундгрен, Мэл Гибсон, Харрисон Форд, Арнольд Шварценеггер, Келлан Латс, Терри Крюс, Сарай Гивати, Рэнди Кутюр, Ронда Раузи, Роберт Дави, Наталия Гуслистая, Виктор Ортис, Глен Пауэлл
    Сюжет фильма:
    Отряд наёмников Неудержимые во главе с Барни Россом сталкивается лицом к лицу с Конрадом Стоунбэнксом — одним из основателей команды. Росс был вынужден убить Стоунбэнкса после того, как тот стал безжалостным торговцем оружием, но Стоунбэнкс выжил и теперь его цель — это уничтожить Неудержимых. Росс, чтобы помочь команде победить своего старого врага, набирает новое молодое поколение Неудержимых.

    Качество фильма:Blu-Ray Remux (1080p)
    Информация о видео:MPEG-4 AVC, 19983 Кбит/с, 1920x1080, 23.976 Кадр/c
    Информация о звуке:Русский (DTS-HD MA, 6 ch, 2238 Кбит/с), (AC3, 6 ch, 640 Кбит/с), (AC3, 2 ch, 384 Кбит/с), английский (AC3, 6 ch, 640 Кбит/с), (AC3, 2 ch, 224 Кбит/с)
    Время просмотра:02:06:27
    Перевод текста:Дублированный, профессиональный многоголосый, авторский одноголосый (Есарев)
    Субтитры:Русские, английские
    Лицензия - Дубляж с BD RUS
    Автор сборки - gogamel74 от ExKinoRay
    ------------------------------------------------------------------------------------------------------------------------------------------------------
    Аудио №1 - Русский, DTS-HD MA, 48 KHz, 6 ch, 2238 kbps, 16 bit - (DUB - RUS - BD RUS)
    Аудио №2 - Русский, AC3, 48 KHz, 6 ch, 640 kbps, 16 bit - (DUB - RUS - BD RUS)
    Аудио №3 - Русский, AC3, 48 KHz, 2 ch, 384 kbps, 16 bit - (MVO - RUS - Baibako)
    Аудио №4 - Русский, AC3, 48 KHz, 2 ch, 384 kbps, 16 bit - (AVO - RUS - Д.Есарев)
    Аудио №5 - Английский, AC3, 48 KHz, 6 ch, 640 kbps, 16 bit - (Original - ENG - BD)
    Аудио №6 - Английский, AC3, 48 KHz, 2 ch, 224 kbps, 16 bit - (Deive - ENG - BD)
    ------------------------------------------------------------------------------------------------------------------------------------------------------
    Субтитры - Русские (Full - Notabenoid), Английские (Full)
    Семпл
    Инфо-файл
    Общее
    Уникальный идентификатор : 196195316048709390317320814726678045049 (0x9399D7E9E4964B74994E22C221EFE179)
    Полное имя : Neuderzhimye.3.2014.x264.Blu-Ray.Remux.1080p.gogamel74.ExKinoRay.mkv
    Формат : Matroska
    Версия формата : Version 4/Version 2
    Размер файла : 21,5 Гбайт
    Продолжительность : 2 ч. 6 м.
    Режим общего битрейта : Переменный
    Общий поток : 24,4 Мбит/сек
    Название фильма : Neuderzhimye.3.2014.x264.Blu-Ray.Remux.1080p.gogamel74.ExKinoRay
    Дата кодирования : UTC 2014-11-22 00:55:00
    Программа кодирования : mkvmerge v7.3.0 (;Nouages;) 64bit built on Oct 22 2014 18:53:34
    Библиотека кодирования : libebml v1.3.0 + libmatroska v1.4.1
    Attachements : CoverCommander.jpg
    Видео
    Идентификатор : 1
    Формат : AVC
    Формат/Информация : Advanced Video Codec
    Профиль формата : High@L4.1
    Параметр CABAC формата : Да
    Параметр ReFrames формата : 4 кадра
    Идентификатор кодека : V_MPEG4/ISO/AVC
    Продолжительность : 2 ч. 6 м.
    Вид битрейта : Переменный
    Максимальный битрейт : 36,5 Мбит/сек
    Ширина : 1920 пикселей
    Высота : 1080 пикселей
    Соотношение сторон : 16:9
    Режим частоты кадров : Постоянный
    Частота кадров : 23,976 кадра/сек
    Цветовое пространство : YUV
    Субдискретизация насыщенности : 4:2:0
    Битовая глубина : 8 бит
    Тип развёртки : Прогрессивная
    Заголовок : Neuderzhimye.3.2014.x264.Blu-Ray.Remux.1080p.gogamel74.ExKinoRay
    Язык : English
    Default : Да
    Forced : Да
    Аудио #1
    Идентификатор : 2
    Формат : DTS
    Формат/Информация : Digital Theater Systems
    Профиль формата : MA/Core
    Режим : 16
    Параметр Endianness формата : Big
    Идентификатор кодека : A_DTS
    Продолжительность : 2 ч. 6 м.
    Вид битрейта : Переменный
    Битрейт : Неизвестно/1509 Кбит/сек
    Каналы : 6 каналов
    Расположение каналов : Front: L C R, Side: L R, LFE
    Частота : 48,0 КГц
    Битовая глубина : 16 бит
    Метод сжатия : Без потерь/Lossy
    Заголовок : DUB - RUS - BD RUS - DTS-HD MA, 48 KHz, 6 ch, 2238 kbps, 16 bit
    Язык : Russian
    Default : Да
    Forced : Да
    Аудио #2
    Идентификатор : 3
    Формат : AC-3
    Формат/Информация : Audio Coding 3
    Расширение режима : CM (complete main)
    Параметр Endianness формата : Big
    Идентификатор кодека : A_AC3
    Продолжительность : 2 ч. 6 м.
    Вид битрейта : Постоянный
    Битрейт : 640 Кбит/сек
    Каналы : 6 каналов
    Расположение каналов : Front: L C R, Side: L R, LFE
    Частота : 48,0 КГц
    Битовая глубина : 16 бит
    Метод сжатия : С потерями
    Размер потока : 579 Мбайт (3%)
    Заголовок : DUB - RUS - BD RUS - AC3, 48 KHz, 6 ch, 640 kbps, 16 bit
    Язык : Russian
    Default : Нет
    Forced : Нет
    Аудио #3
    Идентификатор : 4
    Формат : AC-3
    Формат/Информация : Audio Coding 3
    Расширение режима : CM (complete main)
    Параметр Endianness формата : Big
    Идентификатор кодека : A_AC3
    Продолжительность : 2 ч. 6 м.
    Вид битрейта : Постоянный
    Битрейт : 384 Кбит/сек
    Каналы : 2 канала
    Расположение каналов : Front: L R
    Частота : 48,0 КГц
    Битовая глубина : 16 бит
    Метод сжатия : С потерями
    Размер потока : 347 Мбайт (2%)
    Заголовок : MVO - RUS - Baibako - AC3, 48 KHz, 2 ch, 384 kbps, 16 bit
    Язык : Russian
    Default : Нет
    Forced : Нет
    Аудио #4
    Идентификатор : 5
    Формат : AC-3
    Формат/Информация : Audio Coding 3
    Расширение режима : CM (complete main)
    Параметр Endianness формата : Big
    Идентификатор кодека : A_AC3
    Продолжительность : 2 ч. 6 м.
    Вид битрейта : Постоянный
    Битрейт : 384 Кбит/сек
    Каналы : 2 канала
    Расположение каналов : Front: L R
    Частота : 48,0 КГц
    Битовая глубина : 16 бит
    Метод сжатия : С потерями
    Размер потока : 347 Мбайт (2%)
    Заголовок : AVO - RUS - Esarev - AC3, 48 KHz, 2 ch, 384 kbps, 16 bit
    Язык : Russian
    Default : Нет
    Forced : Нет
    Аудио #5
    Идентификатор : 6
    Формат : AC-3
    Формат/Информация : Audio Coding 3
    Расширение режима : CM (complete main)
    Параметр Endianness формата : Big
    Идентификатор кодека : A_AC3
    Продолжительность : 2 ч. 6 м.
    Вид битрейта : Постоянный
    Битрейт : 640 Кбит/сек
    Каналы : 6 каналов
    Расположение каналов : Front: L C R, Side: L R, LFE
    Частота : 48,0 КГц
    Битовая глубина : 16 бит
    Метод сжатия : С потерями
    Размер потока : 579 Мбайт (3%)
    Заголовок : Original - ENG - BD - AC3, 48 KHz, 6 ch, 640 kbps, 16 bit
    Язык : English
    Default : Нет
    Forced : Нет
    Аудио #6
    Идентификатор : 7
    Формат : AC-3
    Формат/Информация : Audio Coding 3
    Профиль формата : Dolby Digital
    Расширение режима : CM (complete main)
    Параметр Endianness формата : Big
    Идентификатор кодека : A_AC3
    Продолжительность : 2 ч. 6 м.
    Вид битрейта : Постоянный
    Битрейт : 224 Кбит/сек
    Каналы : 2 канала
    Расположение каналов : Front: L R
    Частота : 48,0 КГц
    Битовая глубина : 16 бит
    Метод сжатия : С потерями
    Размер потока : 203 Мбайт (1%)
    Заголовок : Deive - ENG - BD - AC3, 48 KHz, 2 ch, 224 kbps, 16 bit
    Язык : English
    Default : Нет
    Forced : Нет
    Текст #1
    Идентификатор : 8
    Формат : UTF-8
    Идентификатор кодека : S_TEXT/UTF8
    Идентификатор кодека/Информация : UTF-8 Plain Text
    Заголовок : Full - RUS - Notabenoid
    Язык : Russian
    Default : Нет
    Forced : Нет
    Текст #2
    Идентификатор : 9
    Формат : UTF-8
    Идентификатор кодека : S_TEXT/UTF8
    Идентификатор кодека/Информация : UTF-8 Plain Text
    Заголовок : Full - ENG - BD
    Язык : English
    Default : Нет
    Forced : Нет
    Меню
    00:00:00.000 : en:Chapter 01
    00:07:07.593 : en:Chapter 02
    00:12:42.094 : en:Chapter 03
    00:21:45.387 : en:Chapter 04
    00:29:31.728 : en:Chapter 05
    00:35:39.929 : en:Chapter 06
    00:41:51.050 : en:Chapter 07
    00:48:05.173 : en:Chapter 08
    00:54:13.250 : en:Chapter 09
    01:00:05.810 : en:Chapter 10
    01:10:43.113 : en:Chapter 11
    01:19:17.586 : en:Chapter 12
    01:28:05.863 : en:Chapter 13
    01:34:28.913 : en:Chapter 14
    01:43:15.063 : en:Chapter 15
    01:51:11.706 : en:Chapter 16

    Скриншоты для ознакомления



    Релиз подготовил:
    Размер скачиваемого торрента: 21.53 GB (23121547642 Bytes)

    Неудержимые 3/The Expendables 3 (2014) BDRemux 1080p от ExKinoRay | Лицензия, P, A скачать через торрент бесплатно
    загрузка...
    Рейтинг →
     (голосов: 1, оценка 5/5, голосовать можно 1 раз )

    Другие торренты по теме:



      Комментарии (0):

      Информация

      Информация

        Посетители, находящиеся в группе Гости, не могут оставлять комментарии в данной новости.

        ↓ Меню



        ↓ Опрос

        А Вы добавили сайт в закладки?
        Да
        Не


        Top 10 за неделю (Фильмы)

        Ёлки 5 (2016) WEB-DLRip скачать торрент бесплатно

        (просмотров: 571)
        Разрушение / Demolition (2015) BDRemux 1080p от ExKinoRay | L скачать торрент бесплатно

        (просмотров: 381)
        Мой парень – киллер / Mr. Right (2015) WEB-DL 1080p | L скачать торрент бесплатно

        (просмотров: 381)
        Экипаж (2016) BDRip от New-Team | D | Лицензия скачать торрент бесплатно
        АНОНСЫ МОИХ РАЗДАЧ
        (просмотров: 351)
        Экипаж (2016) BDRip от New-Team | D | Лицензия скачать торрент бесплатно
        АНОНСЫ МОИХ РАЗДАЧ
        (просмотров: 311)
        Гений / Genius (2016) WEB-DLRip 1080p | Звук TS скачать торрент бесплатно

        (просмотров: 211)
        Кухня (1-5 сезоны: 1-100 серии из 100 + 2 бонуса) / 2012-2015 / РУ / DVDRip, WEB-DLRip скачать торрент бесплатно

        (просмотров: 201)
        Дуэлянт (2016) WEB-DLRip от Scarabey | iTunes скачать торрент бесплатно

        (просмотров: 191)
        Демон внутри / Вскрытие Джейн Доу / The Autopsy of Jane Doe (2016) WEB-DLRip от Scarabey | P скачать торрент бесплатно
        Мы В КОНТАКТЕ =)
        (просмотров: 181)
        Кухня (2015) SATRip скачать торрент бесплатно
        Кухня ? Кухня (2015) SATRip скачать торрент бесплатно
        (просмотров: 181)