.
Авторизация | Регистрация
» » Место в аду / Un posto allinferno (1969) DVDRip торрент скачать бесплатно




    Место в аду / Un posto allinferno (1969) DVDRip торрент скачать бесплатно

    Опубликовал: Админ | Дата: 27-02-2015, 11:10 | Просмотров: 131


    Снималось в: Италия
    Создали в: Tigielle 33
    Категория жанра: Военный
    Создали в: 1969
    Время просмотра: 01:42:20
    Перевод текста: Любительский одноголосый (den904)
    Оригинальная аудиодорожка: Итальянская
    Главный режиссер: Джузеппе Вери
    Актеры:Гай Мэдисон, Морис Поли, Хелен Шанель, Сандро Корсо, Клаудио Бьява, Фабио Тести, Маурицио Токки, Джино Турини, Томаш Торрес
    Сюжет: Манила, год 1942. Филиппины фактически находятся в руках японской армии, а американские войска накапливают силы после сокрушительного поражения на Пёрл Харборе. Манила в это время была сущим адом из-за ежедневных бомбардировок японцев. Небольшая группа людей, чтобы выжить, решается убежать. Но попадают на остров, который так же находится в руках неприятеля. С помощью нескольких человек они решаются на героический поступок - уничтожить японский радар. С самого начала было ясно, что это будет стоить жизни многих людей, как сказал один из выживших Люди будут воевать до тех пор, пока в аду будет свободное место.

    Исходник:DVD9 R2
    Тип релиза:DVDRip
    Контейнер: AVI
    Информация о видео: 688x288 (2.39:1), 23.976 fps, XviD MPEG-4 ~1132 kbps avg, 0.24 bit/pixel
    Информация о звуке 1: 48 kHz, AC3 Dolby Digital, 2/0 (L,R) ch, ~448 kbps (русский)
    Информация о звуке 2: 48 kHz, AC3 Dolby Digital, 2/0 (L,R) ch, ~448 kbps (итальянский)
    MediaInfo
    Ширина : 688 пикселей
    Высота : 288 пикселей
    Соотношение сторон : 2,40:1
    Частота кадров : 23,976 кадра/сек
    Цветовое пространство : YUV
    Субдискретизация насыщенности : 4:2:0
    Битовая глубина : 8 бит
    Тип развёртки : Прогрессивная
    Метод сжатия : С потерями
    Бит/(Пиксели*Кадры) : 0.239
    Размер потока : 830 Мбайт (55%)
    Библиотека кодирования : XviD 1.2.1 (UTC 2008-12-04)
    Аудио #1
    Идентификатор : 1
    Формат : AC-3
    Формат/Информация : Audio Coding 3
    Расширение режима : CM (complete main)
    Параметр Endianness формата : Big
    Идентификатор кодека : 2000
    Продолжительность : 1 ч. 42 м.
    Вид битрейта : Постоянный
    Битрейт : 448 Кбит/сек
    Каналы : 2 канала
    Расположение каналов : Front: L R
    Частота : 48,0 КГц
    Битовая глубина : 16 бит
    Метод сжатия : С потерями
    Размер потока : 328 Мбайт (22%)
    Выравнивание : Разделение по промежуткам
    Продолжительность промежутка : 42 мс. (1,00 видеокадр)
    Время предзагрузки промежутка : 500 мс.
    Аудио #2
    Идентификатор : 2
    Формат : AC-3
    Формат/Информация : Audio Coding 3
    Расширение режима : CM (complete main)
    Параметр Endianness формата : Big
    Идентификатор кодека : 2000
    Продолжительность : 1 ч. 42 м.
    Вид битрейта : Постоянный
    Битрейт : 448 Кбит/сек
    Каналы : 2 канала
    Расположение каналов : Front: L R
    Частота : 48,0 КГц
    Битовая глубина : 16 бит
    Метод сжатия : С потерями
    Размер потока : 328 Мбайт (22%)
    Выравнивание : Разделение по промежуткам
    Продолжительность промежутка : 42 мс. (1,00 видеокадр)
    Время предзагрузки промежутка : 500 мс.

    Скриншоты для ознакомления

    Автор рипа:
    Залил: YArl
    Размер скачиваемого торрента: 1.46 GB (1568497664 Bytes)

    Место в аду/Un posto allinferno (1969) DVDRip торрент скачать бесплатно
    загрузка...
    Рейтинг →
     (голосов: 1, оценка 5/5, голосовать можно 1 раз )

    Другие торренты по теме:



      Комментарии (0):

      Информация

      Информация

        Посетители, находящиеся в группе Гости, не могут оставлять комментарии в данной новости.

        ↓ Меню



        ↓ Опрос

        А Вы добавили сайт в закладки?
        Да
        Не


        Top 10 за неделю (Фильмы)